img image001 image001 image001 image001 image001 image001 image001 image001 image001 image001 image001 image001 image001 image001 image001

Planets Sun Sun Sun
Статистика раздачи
Автор: PriZraK | Размер: 3.03 ГБ | Добавлен: 06 янв 2017
Раздают: 29    Качают: 3
Скачать торрент
Скачать торрент
Описание торрента

СообщениеДобавлено: 06 янв 2017 

Информация о фильме
Название: Инферно
Оригинальное название: Inferno
Год выхода: 2016
Жанр: Боевик, триллер, драма, криминал, детектив
Режиссер: Рон Ховард
В ролях: Том Хэнкс, Бен Фостер, Сидсе Бабетт Кнудсен, Фелисити Джонс, Ирфан Кхан, Омар Си, Ана Улару, Ката Сарбо, Ида Дарвиш, Вольфганг Штегеман

О фильме:
В основу сюжета положена четвёртая книга Дэна Брауна, повествующая об учёном Роберте Лэнгдоне. Некий миллиардер в порыве искреннего человеколюбия решает убить половину населения планеты. В своей уютной лаборантской он выводит особый штамм смертельного вируса, способного заразить 95 процентов людей за пару суток. Будучи не в силах упустить красоту момента, он зашифровывает точные координаты пакета с адским варевом в "Инферно" - первой части "Божественной комедии" Данте. Профессору Роберту Лэнгдону с практически отключенным сознанием и стертой памятью предстоит решающий мозговой штурм, от исхода которого зависит судьба миллиардов людей.

Этот фильм стал третьем в серии, однако, если верить словам продюссеров, они не планируют останавливаться и в будущем выйдет четвертая часть под названием "Утраченный символ".



Страна: США, Япония, Турция, Венгрия
Студия: Columbia Pictures, Imagine Entertainment, LStar Capital
Продолжительность: 02:01:49
Перевод: Дублированный | iTunes
Файл
Качество: WEB-DLRip (AVC)
Видео: MPEG-4 AVC, 2670 Кбит/с, 1024x554
Аудио: Русский, английский (AC3, 6 ch, 384 Кбит/с), украинский (AAС, 2 ch, 128 Кбит/с)
Субтитры: Russian (Forced, iTunes), Russian (iTunes), Ukrainian (Forced, iTunes), Ukrainian (iTunes), English (Forced, iTunes), English (iTunes)

General
Unique ID : 186822811206408107195902435194686294182 (0x8C8CC3BF6D734D23BB944923D22248A6)
Complete name : D:Inferno.2016.D.WEB-DLRip.AVC.ExKinoRay.mkv
Format : Matroska
Format version : Version 2
File size : 3.03 GiB
Duration : 2 h 1 min
Overall bit rate : 3 565 kb/s
Movie name : Inferno (2016) from ExKinoRay
Encoded date : UTC 2017-01-05 00:56:28
Writing application : mkvmerge v7.6.0 ('Garden of Dreams') 32bit built on Feb 11 2015 00:18:47
Writing library : libebml v1.3.1 + libmatroska v1.4.2

Video
ID : 1
Format : AVC
Format/Info : Advanced Video Codec
Format profile : High@L4.1
Format settings, CABAC : Yes
Format settings, ReFrames : 12 frames
Codec ID : V_MPEG4/ISO/AVC
Duration : 2 h 1 min
Nominal bit rate : 2 670 kb/s
Width : 1 024 pixels
Height : 554 pixels
Display aspect ratio : 1.85:1
Frame rate mode : Constant
Frame rate : 23.976 (24000/1001) FPS
Color space : YUV
Chroma subsampling : 4:2:0
Bit depth : 8 bits
Scan type : Progressive
Bits/(Pixel*Frame) : 0.196
Title : Enigma
Writing library : x264 core 144 r2525 40bb568
Encoding settings : cabac=1 / ref=12 / deblock=1:-3:-3 / analyse=0x3:0x113 / me=umh / subme=10 / psy=1 / psy_rd=1.00:0.05 / mixed_ref=1 / me_range=32 / chroma_me=1 / trellis=2 / 8x8dct=1 / cqm=0 / deadzone=21,11 / fast_pskip=1 / chroma_qp_offset=-3 / threads=12 / lookahead_threads=3 / sliced_threads=0 / nr=0 / decimate=1 / interlaced=0 / bluray_compat=0 / constrained_intra=0 / bframes=10 / b_pyramid=2 / b_adapt=2 / b_bias=0 / direct=3 / weightb=1 / open_gop=0 / weightp=2 / keyint=240 / keyint_min=23 / scenecut=40 / intra_refresh=0 / rc_lookahead=40 / rc=2pass / mbtree=0 / bitrate=2670 / ratetol=1.0 / qcomp=0.65 / qpmin=0 / qpmax=51 / qpstep=4 / cplxblur=20.0 / qblur=0.5 / vbv_maxrate=50000 / vbv_bufsize=62500 / nal_hrd=none / filler=0 / ip_ratio=1.40 / pb_ratio=1.30 / aq=3:0.80
Language : English
Default : Yes
Forced : No
Color range : Limited
Color primaries : BT.709
Transfer characteristics : BT.709
Matrix coefficients : BT.709

Audio #1
ID : 2
Format : AC-3
Format/Info : Audio Coding 3
Mode extension : CM (complete main)
Format settings, Endianness : Big
Codec ID : A_AC3
Duration : 2 h 1 min
Bit rate mode : Constant
Bit rate : 384 kb/s
Channel(s) : 6 channels
Channel positions : Front: L C R, Side: L R, LFE
Sampling rate : 48.0 kHz
Frame rate : 31.250 FPS (1536 spf)
Compression mode : Lossy
Stream size : 335 MiB (11%)
Title : DUB, iTunes
Language : Russian
Default : Yes
Forced : No

Audio #2
ID : 3
Format : AAC
Format/Info : Advanced Audio Codec
Format profile : LC
Codec ID : A_AAC
Duration : 2 h 1 min
Channel(s) : 2 channels
Channel positions : Front: L R
Sampling rate : 44.1 kHz
Frame rate : 43.066 FPS (1024 spf)
Compression mode : Lossy
Language : Ukrainian
Default : No
Forced : No

Audio #3
ID : 4
Format : AC-3
Format/Info : Audio Coding 3
Mode extension : CM (complete main)
Format settings, Endianness : Big
Codec ID : A_AC3
Duration : 2 h 1 min
Bit rate mode : Constant
Bit rate : 384 kb/s
Channel(s) : 6 channels
Channel positions : Front: L C R, Side: L R, LFE
Sampling rate : 48.0 kHz
Frame rate : 31.250 FPS (1536 spf)
Compression mode : Lossy
Stream size : 335 MiB (11%)
Language : English
Default : No
Forced : No

Text #1
ID : 5
Format : UTF-8
Codec ID : S_TEXT/UTF8
Codec ID/Info : UTF-8 Plain Text
Title : Forced
Language : Russian
Default : Yes
Forced : No

Text #2
ID : 6
Format : UTF-8
Codec ID : S_TEXT/UTF8
Codec ID/Info : UTF-8 Plain Text
Title : iTunes
Language : Russian
Default : No
Forced : No

Text #3
ID : 7
Format : UTF-8
Codec ID : S_TEXT/UTF8
Codec ID/Info : UTF-8 Plain Text
Title : Forced
Language : Ukrainian
Default : No
Forced : No

Text #4
ID : 8
Format : UTF-8
Codec ID : S_TEXT/UTF8
Codec ID/Info : UTF-8 Plain Text
Title : iTunes
Language : Ukrainian
Default : No
Forced : No

Text #5
ID : 9
Format : UTF-8
Codec ID : S_TEXT/UTF8
Codec ID/Info : UTF-8 Plain Text
Title : Forced
Language : English
Default : No
Forced : No

Text #6
ID : 10
Format : UTF-8
Codec ID : S_TEXT/UTF8
Codec ID/Info : UTF-8 Plain Text
Title : iTunes
Language : English
Default : No
Forced : No

Menu
00:00:00.000 : en:1
00:04:12.544 : en:2
00:12:32.085 : en:3
00:23:42.004 : en:4
00:36:02.160 : en:5
00:51:10.651 : en:6
00:59:15.594 : en:7
01:01:41.906 : en:8
01:07:41.515 : en:9
01:13:24.232 : en:10
01:20:01.254 : en:11
01:24:36.362 : en:12
01:31:24.269 : en:13
01:35:41.109 : en:14
01:40:50.126 : en:15
01:52:26.906 : en:16





Релиз от:

Автор релиза:



   Похожие торренты   Торрент   Размер 
В этой теме нет новых непрочитанных сообщений. Инферно / Inferno (2016) BDRip от ExKinoRay | iTunes

65 | 3

2.13 ГБ

В этой теме нет новых непрочитанных сообщений. Инферно / Inferno (2016) BDRip от ExKinoRay | iTunes

175 | 5

1.46 ГБ

В этой теме нет новых непрочитанных сообщений. Инферно / Inferno (2016) WEB-DL 1080p от ExKinoRay | iTunes

299 | 8

5.14 ГБ

В этой теме нет новых непрочитанных сообщений. Инферно / Inferno (2016) BDRip 720p от ExKinoRay | iTunes

11 | 2

10.18 ГБ

В этой теме нет новых непрочитанных сообщений. Инферно / Inferno (2016) BDRip 1080p от ExKinoRay | iTunes

33 | 4

14.92 ГБ

В этой теме нет новых непрочитанных сообщений. Инферно / Inferno (2016) WEB-DLRip от MegaPeer | iTunes

641 | 8

1.46 ГБ

В этой теме нет новых непрочитанных сообщений. Инферно / Inferno (2016) WEB-DLRip от MegaPeer | iTunes

94 | 3

2.18 ГБ




Вы не можете начинать темы
Вы не можете отвечать на сообщения
Вы не можете редактировать свои сообщения
Вы не можете удалять свои сообщения
Вы не можете добавлять вложения

Перейти:  
Для Мосгорсуда, Роскомнадзора и рекламодателей: mosgorsud-torrent[собачка]yandex.ru
 Вход
ppkBB3cker v.2 © 2008-2014 @ PPK
[ Time : 0.042s | 17 Queries | GZIP : Off ]

Торрент трекер RUTOR.IN, Не можете зайти на rutor.org? Какой новый адрес рутор? Какое зеркало рутор? Не работает rutor.org и зеркала? Тогда наш торрент специально для вас. Rutor.in неофициальное зеркало rutor. В случае если у Вас заблокирован rutor или вдруг Вы не можете на него зайти, то Вы без труда сможете скачать бесплатно и без рекламы последние новинки кино, игр, сериалов и прочего у нас, на Rutor.in. Не нужно использовать прокси, чтобы зайти на рутор, достаточно воспользоваться нашим ресурсом. Все новые фильмы, игры, сериалы, книги и музыка за 2013 и 2014 годы через торрент бесплатно. Скачивайте фильмы в хорошем качестве, игры для пк, xbox, playstation без регистрации. У нас вы найдете новые Зарубежные сериалы и Русские сериалы 2013, 2014, 2015 годов. Оставайтесь с нами, качайте любимые фильмы, игры, сериалы, книги и музыку.
cron