img image001 image001 image001 image001 image001 image001 image001 image001 image001 image001 image001 image001 image001 image001 image001

Planets Sun Sun Sun
Статистика раздачи
Автор: PriZraK | Размер: 6.91 ГБ | Добавлен: 08 янв 2017
Раздают: 158    Качают: 25
Скачать торрент
Скачать торрент
Описание торрента

СообщениеДобавлено: 08 янв 2017 

Информация о фильме
Название: Свет в океане
Оригинальное название: The Light Between Oceans
Год выхода: 2016
Жанр: Драма, мелодрама
Режиссер: Дерек Сиенфрэнс
В ролях: Майкл Фассбендер, Алисия Викандер, Рэйчел Вайз, Флоренс Клери, Джек Томпсон, Томас Унгер, Джейн Менелос, Гарри МакДональд, Энтони Хэйес, Бенедикт Харди

О фильме:
Вернувшийся с войны смотритель маяка Том встречает трепетную девушку по имени Изабель. Зародившаяся между ними любовь полностью преображает Изабель и возвращает опустошенному Тому веру в жизнь. Молодожены поселяются на уединенном острове, к берегу которого однажды пристает лодка с новорожденной девочкой. Супруги решают воспитать младенца как родную дочь, не представляя, насколько разрушительными будут последствия этого выбора.


Страна: Великобритания, Новая Зеландия, США
Студия: Amblin Entertainment, DreamWorks SKG
Продолжительность: 02:12:51
Перевод: Дублированный | iTunes
Файл
Качество: BDRip 720p
Видео: MPEG-4 AVC, 1280x536, 5557 Kbit/s, 23.976 fps
Звук:
Аудио #01: 48 kHz, AC3, 5.1, 384 Kbps | Дублированный | iTunes |
Аудио #02: 48 kHz, DTS, 5.1, 1510 kbps | Оригинал |
Субтитры: Русские (полные, форсированные), английские

Общее
Уникальный идентификатор : 183099169857383453612065250019881591794 (0x89BF9E0E10054E599864F18603D123F2)
Полное имя : F:VideoThe.Light.Between.Oceans.2016.D.BDRip.720p.mkv
Формат : Matroska
Версия формата : Version 4 / Version 2
Размер файла : 6,91 Гбайт
Продолжительность : 2 ч. 12 м.
Общий поток : 7451 Кбит/сек
Дата кодирования : UTC 2017-01-06 15:49:07
Программа кодирования : mkvmerge v8.3.0 ('Over the Horizon') 64bit
Библиотека кодирования : libebml v1.3.1 + libmatroska v1.4.2

Видео
Идентификатор : 1
Формат : AVC
Формат/Информация : Advanced Video Codec
Профиль формата : High@L4.1
Параметр CABAC формата : Да
Параметр ReFrames формата : 5 кадров
Идентификатор кодека : V_MPEG4/ISO/AVC
Продолжительность : 2 ч. 12 м.
Битрейт : 5557 Кбит/сек
Ширина : 1280 пикселей
Высота : 536 пикселей
Соотношение сторон : 2,40:1
Режим частоты кадров : Постоянный
Частота кадров : 23,976 кадра/сек
Цветовое пространство : YUV
Субдискретизация насыщенности : 4:2:0
Битовая глубина : 8 бит
Тип развёртки : Прогрессивная
Бит/(Пиксели*Кадры) : 0.338
Размер потока : 5,16 Гбайт (75%)
Библиотека кодирования : x264 core 148 r2705 3f5ed56
Настройки программы : cabac=1 / ref=5 / deblock=1:0:0 / analyse=0x3:0x133 / me=umh / subme=7 / psy=1 / psy_rd=1.00:0.00 / mixed_ref=1 / me_range=16 / chroma_me=1 / trellis=2 / 8x8dct=1 / cqm=0 / deadzone=21,11 / fast_pskip=0 / chroma_qp_offset=-2 / threads=12 / lookahead_threads=2 / sliced_threads=0 / nr=0 / decimate=1 / interlaced=0 / bluray_compat=0 / constrained_intra=0 / bframes=3 / b_pyramid=2 / b_adapt=1 / b_bias=0 / direct=1 / weightb=1 / open_gop=0 / weightp=2 / keyint=250 / keyint_min=23 / scenecut=40 / intra_refresh=0 / rc_lookahead=40 / rc=2pass / mbtree=1 / bitrate=5557 / ratetol=1.0 / qcomp=0.60 / qpmin=0 / qpmax=69 / qpstep=4 / cplxblur=20.0 / qblur=0.5 / ip_ratio=1.40 / aq=1:1.00
Язык : English
Default : Да
Forced : Нет

Аудио #1
Идентификатор : 2
Формат : AC-3
Формат/Информация : Audio Coding 3
Расширение режима : CM (complete main)
Параметр Endianness формата : Big
Идентификатор кодека : A_AC3
Продолжительность : 2 ч. 12 м.
Вид битрейта : Постоянный
Битрейт : 384 Кбит/сек
Каналы : 6 каналов
Расположение каналов : Front: L C R, Side: L R, LFE
Частота : 48,0 КГц
Частота кадров : 31,250 кадров/сек (1536 spf)
Битовая глубина : 16 бит
Метод сжатия : С потерями
Размер потока : 365 Мбайт (5%)
Язык : Russian
Default : Да
Forced : Нет

Аудио #2
Идентификатор : 3
Формат : DTS
Формат/Информация : Digital Theater Systems
Режим : 16
Параметр Endianness формата : Big
Идентификатор кодека : A_DTS
Продолжительность : 2 ч. 12 м.
Вид битрейта : Постоянный
Битрейт : 1509 Кбит/сек
Каналы : 6 каналов
Расположение каналов : Front: L C R, Side: L R, LFE
Частота : 48,0 КГц
Частота кадров : 93,750 кадра/сек (512 spf)
Битовая глубина : 24 бит
Метод сжатия : С потерями
Размер потока : 1,40 Гбайт (20%)
Язык : English
Default : Нет
Forced : Нет

Текст #1
Идентификатор : 4
Формат : UTF-8
Идентификатор кодека : S_TEXT/UTF8
Идентификатор кодека/Информация : UTF-8 Plain Text
Продолжительность : 31 м. 28 с.
Битрейт : 2 бит/сек
Count of elements : 6
Размер потока : 489 байт (0%)
Заголовок : Forced [iTunes]
Язык : Russian
Default : Да
Forced : Нет

Текст #2
Идентификатор : 5
Формат : UTF-8
Идентификатор кодека : S_TEXT/UTF8
Идентификатор кодека/Информация : UTF-8 Plain Text
Продолжительность : 2 ч. 5 м.
Битрейт : 62 бит/сек
Count of elements : 1293
Размер потока : 57,0 Кбайт (0%)
Заголовок : Full [iTunes]
Язык : Russian
Default : Нет
Forced : Нет

Текст #3
Идентификатор : 6
Формат : UTF-8
Идентификатор кодека : S_TEXT/UTF8
Идентификатор кодека/Информация : UTF-8 Plain Text
Продолжительность : 2 ч. 6 м.
Битрейт : 47 бит/сек
Count of elements : 1634
Размер потока : 44,1 Кбайт (0%)
Язык : English
Default : Нет
Forced : Нет

Меню
00:00:00.000 : en:00:00:00.000
00:04:55.128 : en:00:04:55.128
00:11:38.531 : en:00:11:38.531
00:17:30.007 : en:00:17:30.007
00:23:07.469 : en:00:23:07.469
00:29:35.816 : en:00:29:35.816
00:35:21.953 : en:00:35:21.953
00:42:35.678 : en:00:42:35.678
00:49:51.822 : en:00:49:51.822
00:55:14.186 : en:00:55:14.186
00:59:26.062 : en:00:59:26.062
01:05:48.027 : en:01:05:48.027
01:10:52.957 : en:01:10:52.957
01:13:14.724 : en:01:13:14.724
01:22:34.032 : en:01:22:34.032
01:31:42.956 : en:01:31:42.956
01:42:29.101 : en:01:42:29.101
01:51:31.018 : en:01:51:31.018
02:01:29.324 : en:02:01:29.324
02:07:08.621 : en:02:07:08.621





   Похожие торренты   Торрент   Размер 
В этой теме нет новых непрочитанных сообщений. Свет в океане / The Light Between Oceans (2016) BDRip 720p от Scarabey | iTunes

341 | 50

4.4 ГБ

В этой теме нет новых непрочитанных сообщений. Свет в океане / The Light Between Oceans (2016) BDRip 720p от ExKinoRay | iTunes

8 | 4

9.18 ГБ

В этой теме нет новых непрочитанных сообщений. Свет в океане / The Light Between Oceans (2016) BDRip 720p от New-Team | iTunes

56 | 10

7.03 ГБ

В этой теме нет новых непрочитанных сообщений. Свет в океане / The Light Between Oceans (2016) BDRip-AVC | iTunes

90 | 20

743.78 МБ

В этой теме нет новых непрочитанных сообщений. Свет в океане / The Light Between Oceans (2016) WEB-DL 720p от ExKinoRay | iTunes

89 | 6

4.55 ГБ

В этой теме нет новых непрочитанных сообщений. Свет в океане / The Light Between Oceans (2016) BDRip от MegaPeer | iTunes

37 | 7

2.12 ГБ

В этой теме нет новых непрочитанных сообщений. Свет в океане / The Light Between Oceans (2016) BDRip от ExKinoRay | iTunes

227 | 15

1.46 ГБ




Вы не можете начинать темы
Вы не можете отвечать на сообщения
Вы не можете редактировать свои сообщения
Вы не можете удалять свои сообщения
Вы не можете добавлять вложения

Перейти:  
Для Мосгорсуда, Роскомнадзора и рекламодателей: mosgorsud-torrent[собачка]yandex.ru
 Вход
ppkBB3cker v.2 © 2008-2014 @ PPK
[ Time : 0.098s | 16 Queries | GZIP : Off ]

Торрент трекер RUTOR.IN, Не можете зайти на rutor.org? Какой новый адрес рутор? Какое зеркало рутор? Не работает rutor.org и зеркала? Тогда наш торрент специально для вас. Rutor.in неофициальное зеркало rutor. В случае если у Вас заблокирован rutor или вдруг Вы не можете на него зайти, то Вы без труда сможете скачать бесплатно и без рекламы последние новинки кино, игр, сериалов и прочего у нас, на Rutor.in. Не нужно использовать прокси, чтобы зайти на рутор, достаточно воспользоваться нашим ресурсом. Все новые фильмы, игры, сериалы, книги и музыка за 2013 и 2014 годы через торрент бесплатно. Скачивайте фильмы в хорошем качестве, игры для пк, xbox, playstation без регистрации. У нас вы найдете новые Зарубежные сериалы и Русские сериалы 2013, 2014, 2015 годов. Оставайтесь с нами, качайте любимые фильмы, игры, сериалы, книги и музыку.