img image001 image001 image001 image001 image001 image001 image001 image001 image001 image001 image001 image001 image001 image001 image001

Planets Sun Sun Sun
Статистика раздачи
Автор: PriZraK | Размер: 1.75 ГБ | Добавлен: 10 янв 2017
Раздают: 6    Качают: 0
Скачать торрент
Скачать торрент
Описание торрента

СообщениеДобавлено: 10 янв 2017 

Информация о фильме
Название: Жертва
Оригинальное название: Sacrifice
Год выхода: 2016
Жанр: триллер
Режиссер: Питер Э. Даулинг
В ролях: Рада Митчелл, Руперт Грейвз, Йен МакЭлхинни, Дэвид Робб, Лайам Карни, Питер Фоллебрегт, Деклан Конлон, Леса Турман Конор Маллен, Джоэнн Кроуфорд

О фильме: Консультирующий хирург Тора Гамильтон вместе с мужем Дунканом переезжает на удаленные Шетландские острова, в 100 милях от северо-восточного побережья Шотландии. На территории своего нового дома Тора находит изрезанное руническими знаками тело молодой женщины, вместо сердца у которой — дыра. Не обращая внимания на предупреждения оставить все как есть, Тора все ближе подбирается к страшнейшей легенде, которую никто и никогда не осмелился бы записать.


Выпущено: Ирландия, Германия, США / Boulder Media, Cheyenne Enterprises, Fundamental Entertainment, Schubert International Filmproduktions, Subotica Entertainment Ltd.
Продолжительность: 01:31:06
Озвучивание: Любительское (двухголосое) [Студия Колобок]

Роли озвучивали: den904, DeadSno
Перевод: ZvukiVuki

Примечание: Релиз без рекламы.

Файл
Качество: HDRip (AVC)
Видео: MPEG-4 AVC, 1850 Кбит/с, 1024x428
Аудио: Русский, английский (AC3, 6 ch, 448 Кбит/с)
Субтитры: Английские

Общее
Уникальный идентификатор : 183795342385048437620281645385549731551 (0x8A45B202B559D12F8C7A44716BA1D6DF)
Полное имя : C:UsersExKinoRayZhertva.2016.DVO.HDRip.(AVC).ExKinoRay.xtc26.mkv
Формат : Matroska
Версия формата : Version 2
Размер файла : 1,75 Гбайт
Продолжительность : 1 ч. 31 м.
Общий поток : 2744 Кбит/сек
Дата кодирования : UTC 2017-01-10 03:08:33
Программа кодирования : mkvmerge v7.8.0 ('River Man') 32bit built on Apr 3 2015 12:11:22
Библиотека кодирования : libebml v1.3.1 + libmatroska v1.4.2

Видео
Идентификатор : 1
Формат : AVC
Формат/Информация : Advanced Video Codec
Профиль формата : High@L4.1
Параметр CABAC формата : Да
Параметр ReFrames формата : 12 кадров
Идентификатор кодека : V_MPEG4/ISO/AVC
Продолжительность : 1 ч. 31 м.
Битрейт : 1850 Кбит/сек
Ширина : 1024 пикселя
Высота : 428 пикселей
Соотношение сторон : 2,40:1
Режим частоты кадров : Постоянный
Частота кадров : 23,976 (24000/1001) кадра/сек
Цветовое пространство : YUV
Субдискретизация насыщенности : 4:2:0
Битовая глубина : 8 бит
Тип развёртки : Прогрессивная
Бит/(Пиксели*Кадры) : 0.176
Размер потока : 1,14 Гбайт (65%)
Библиотека кодирования : x264 core 146 r2538 121396c
Настройки программы : cabac=1 / ref=12 / deblock=1:-2:-2 / analyse=0x3:0x113 / me=umh / subme=10 / psy=1 / psy_rd=1.00:0.05 / mixed_ref=1 / me_range=32 / chroma_me=1 / trellis=2 / 8x8dct=1 / cqm=0 / deadzone=21,11 / fast_pskip=0 / chroma_qp_offset=-3 / threads=6 / lookahead_threads=1 / sliced_threads=0 / nr=0 / decimate=0 / interlaced=0 / bluray_compat=0 / constrained_intra=0 / bframes=10 / b_pyramid=2 / b_adapt=2 / b_bias=0 / direct=3 / weightb=1 / open_gop=0 / weightp=2 / keyint=240 / keyint_min=23 / scenecut=40 / intra_refresh=0 / rc_lookahead=40 / rc=2pass / mbtree=0 / bitrate=1850 / ratetol=1.0 / qcomp=0.60 / qpmin=0 / qpmax=69 / qpstep=4 / cplxblur=20.0 / qblur=0.5 / vbv_maxrate=50000 / vbv_bufsize=62500 / nal_hrd=none / filler=0 / ip_ratio=1.40 / pb_ratio=1.30 / aq=1:1.00
Default : Да
Forced : Нет
Цветовой диапазон : Limited
Основные цвета : BT.709
Характеристики трансфера : BT.709
Коэффициенты матрицы : BT.709

Аудио #1
Идентификатор : 2
Формат : AC-3
Формат/Информация : Audio Coding 3
Расширение режима : CM (complete main)
Параметр Endianness формата : Big
Идентификатор кодека : A_AC3
Продолжительность : 1 ч. 31 м.
Вид битрейта : Постоянный
Битрейт : 448 Кбит/сек
Каналы : 6 каналов
Расположение каналов : Front: L C R, Side: L R, LFE
Частота : 48,0 КГц
Частота кадров : 31,250 кадров/сек (1536 spf)
Битовая глубина : 16 бит
Метод сжатия : С потерями
Размер потока : 292 Мбайт (16%)
Язык : Russian
Default : Да
Forced : Нет

Аудио #2
Идентификатор : 3
Формат : AC-3
Формат/Информация : Audio Coding 3
Расширение режима : CM (complete main)
Параметр Endianness формата : Big
Идентификатор кодека : A_AC3
Продолжительность : 1 ч. 31 м.
Вид битрейта : Постоянный
Битрейт : 448 Кбит/сек
Каналы : 6 каналов
Расположение каналов : Front: L C R, Side: L R, LFE
Частота : 48,0 КГц
Частота кадров : 31,250 кадров/сек (1536 spf)
Битовая глубина : 16 бит
Метод сжатия : С потерями
Размер потока : 292 Мбайт (16%)
Язык : English
Default : Нет
Forced : Нет

Текст
Идентификатор : 4
Формат : UTF-8
Идентификатор кодека : S_TEXT/UTF8
Идентификатор кодека/Информация : UTF-8 Plain Text
Default : Нет
Forced : Нет

Меню
00:00:00.000 : en:00:00:00.000
00:07:37.916 : en:00:07:37.916
00:14:10.725 : en:00:14:10.725
00:21:43.427 : en:00:21:43.427
00:29:14.920 : en:00:29:14.920
00:36:17.884 : en:00:36:17.884
00:44:29.125 : en:00:44:29.125
00:51:45.477 : en:00:51:45.477
00:58:39.725 : en:00:58:39.725
01:05:38.518 : en:01:05:38.518
01:12:28.970 : en:01:12:28.970
01:20:16.478 : en:01:20:16.478





Релиз от:

Релиз : xtc26



   Похожие торренты   Торрент   Размер 
В этой теме нет новых непрочитанных сообщений. Жертва / Sacrifice (2016) HDRip-AVC | L2

32 | 0

1.45 ГБ

В этой теме нет новых непрочитанных сообщений. Жертва / Sacrifice (2016) HDRip | L2

33 | 4

1.33 ГБ

В этой теме нет новых непрочитанных сообщений. Жертва / Sacrifice (2016) HDRip-AVC | L2

4 | 0

743.26 МБ

В этой теме нет новых непрочитанных сообщений. Жертва / Sacrifice (2016) HDRip От Cmert | L1

2 | 0

1.13 ГБ

В этой теме нет новых непрочитанных сообщений. Жертва / Sacrifice (2016) WEB-DL 720p | L1

358 | 10

2.97 ГБ

В этой теме нет новых непрочитанных сообщений. Жертва / Sacrifice (2016) WEB-DLRip | L1

562 | 17

1.45 ГБ

В этой теме нет новых непрочитанных сообщений. Жертва / Sacrifice (2016) BDRip 720p | L2

12 | 0

3.75 ГБ




Вы не можете начинать темы
Вы не можете отвечать на сообщения
Вы не можете редактировать свои сообщения
Вы не можете удалять свои сообщения
Вы не можете добавлять вложения

Перейти:  
Для Мосгорсуда, Роскомнадзора и рекламодателей: mosgorsud-torrent[собачка]yandex.ru
 Вход
ppkBB3cker v.2 © 2008-2014 @ PPK
[ Time : 0.052s | 17 Queries | GZIP : Off ]

Торрент трекер RUTOR.IN, Не можете зайти на rutor.org? Какой новый адрес рутор? Какое зеркало рутор? Не работает rutor.org и зеркала? Тогда наш торрент специально для вас. Rutor.in неофициальное зеркало rutor. В случае если у Вас заблокирован rutor или вдруг Вы не можете на него зайти, то Вы без труда сможете скачать бесплатно и без рекламы последние новинки кино, игр, сериалов и прочего у нас, на Rutor.in. Не нужно использовать прокси, чтобы зайти на рутор, достаточно воспользоваться нашим ресурсом. Все новые фильмы, игры, сериалы, книги и музыка за 2013 и 2014 годы через торрент бесплатно. Скачивайте фильмы в хорошем качестве, игры для пк, xbox, playstation без регистрации. У нас вы найдете новые Зарубежные сериалы и Русские сериалы 2013, 2014, 2015 годов. Оставайтесь с нами, качайте любимые фильмы, игры, сериалы, книги и музыку.
cron