img image001 image001 image001 image001 image001 image001 image001 image001 image001 image001 image001 image001 image001 image001 image001

Planets Sun Sun Sun
Статистика раздачи
Автор: PriZraK | Размер: 18.42 ГБ | Добавлен: 11 янв 2017
Раздают: 0    Качают: 3
Скачать торрент
Скачать торрент
Описание торрента

СообщениеДобавлено: 11 янв 2017 



Информация о фильме
Название: Яма
Оригинальное название: The Pit
Год выхода: 1981
Жанр: ужасы, детектив
Режиссер: Лью Леман
В ролях: Сэмми Снайдерс, Джинни Элиас, Соня Смитс, Лаура Холлингсворт, Джон Отен, Лаура Пресс, Пол Гришам, Венди Шмидт, Андреа Шварц, Эдит Бедкер

Описание: Одинокий и странный мальчик навлекает месть на своих агрессоров, когда делает тревожное открытие в глубине леса.



Страна: Канада
Продолжительность: 01:36:22
Перевод: Любительский (одноголосый закадровый) А. Морозов
Субтитры: отсутствуют
Оригинальная аудиодорожка: английский

Файл
Качество: BDRemux 1080р
Видео: 1920x1080 / MPEG-4 AVC Video / 26555 kbps / 1080p / 23.976 fps / 16:9 / High Profile 4.1
Аудио 1: Русский / AC3 / 2.0 / 256 Kbps / 48,0 kHz (Morozov)
Аудио 2: English / FLAC / 2.0 / ~301 kbps / 48,0 kHz (Original)
Аудио 3: English / AC3 / 2.0 / 256 kbps / 48 kHz (Commentary)


Общее
Уникальный идентификатор : 220793456879390197085977561868275838715 (0xA61B45E42C0A7C498B8C6261C3E06EFB)
Полное имя : The.Pit.1981.BDRemux.1080p.Rus.Eng.mkv
Формат : Matroska
Версия формата : Version 4 / Version 2
Размер файла : 18,4 Гбайт
Продолжительность : 1 ч. 36 м.
Режим общего битрейта : Переменный
Общий поток : 27,4 Мбит/сек
Название фильма : The Pit 1981
Дата кодирования : UTC 2017-01-05 08:16:39
Программа кодирования : mkvmerge v9.2.0 ('Photograph') 32bit
Библиотека кодирования : libebml v1.3.3 + libmatroska v1.4.4
DURATION : 01:36:22.752000000
NUMBER_OF_FRAMES : 180711
NUMBER_OF_BYTES : 185048064
_STATISTICS_WRITING_APP : mkvmerge v9.2.0 ('Photograph') 32bit
_STATISTICS_WRITING_DATE_UTC : 2017-01-05 08:16:39
_STATISTICS_TAGS : BPS DURATION NUMBER_OF_FRAMES NUMBER_OF_BYTES

Видео
Идентификатор : 1
Формат : AVC
Формат/Информация : Advanced Video Codec
Профиль формата : High@L4.1
Параметр CABAC формата : Да
Параметр ReFrames формата : 4 кадра
Идентификатор кодека : V_MPEG4/ISO/AVC
Продолжительность : 1 ч. 36 м.
Вид битрейта : Переменный
Максимальный битрейт : 35,0 Мбит/сек
Ширина : 1920 пикселей
Высота : 1080 пикселей
Соотношение сторон : 16:9
Режим частоты кадров : Постоянный
Частота кадров : 23,976 кадра/сек
Стандарт вещания : NTSC
Цветовое пространство : YUV
Субдискретизация насыщенности : 4:2:0
Битовая глубина : 8 бит
Тип развёртки : Прогрессивная
Заголовок : The.Pit.1981.BD50.DTS.MA.2.0.BaggerInc
Default : Нет
Forced : Нет
Цветовой диапазон : Limited
Основные цвета : BT.709
Характеристики трансфера : BT.709
Коэффициенты матрицы : BT.709

Аудио #1
Идентификатор : 2
Формат : AC-3
Формат/Информация : Audio Coding 3
Расширение режима : CM (complete main)
Параметр Endianness формата : Big
Идентификатор кодека : A_AC3
Продолжительность : 1 ч. 36 м.
Вид битрейта : Постоянный
Битрейт : 256 Кбит/сек
Каналы : 2 канала
Расположение каналов : Front: L R
Частота : 48,0 КГц
Метод сжатия : С потерями
Размер потока : 176 Мбайт (1%)
Заголовок : Morozov AC3 2.0 256 kbps
Язык : Russian
Default : Нет
Forced : Нет

Аудио #2
Идентификатор : 3
Формат : FLAC
Формат/Информация : Free Lossless Audio Codec
Идентификатор кодека : A_FLAC
Продолжительность : 1 ч. 36 м.
Вид битрейта : Переменный
Каналы : 2 канала
Частота : 48,0 КГц
Битовая глубина : 16 бит
Заголовок : Original FLAC 2.0 301 kbps
Библиотека кодирования : libFLAC 1.2.1 (UTC 2007-09-17)
Язык : English
Default : Нет
Forced : Нет

Аудио #3
Идентификатор : 4
Формат : AC-3
Формат/Информация : Audio Coding 3
Расширение режима : CM (complete main)
Параметр Endianness формата : Big
Идентификатор кодека : A_AC3
Продолжительность : 1 ч. 36 м.
Вид битрейта : Постоянный
Битрейт : 256 Кбит/сек
Каналы : 2 канала
Расположение каналов : Front: L R
Частота : 48,0 КГц
Метод сжатия : С потерями
Размер потока : 176 Мбайт (1%)
Заголовок : Commentary AC3 2.0 256 kbps
Язык : English
Default : Нет
Forced : Нет

Меню
00:00:00.000 : en:00:00:00.000
00:11:43.494 : en:00:11:43.494
00:22:45.030 : en:00:22:45.030
00:35:37.552 : en:00:35:37.552
00:45:24.555 : en:00:45:24.555
00:52:46.246 : en:00:52:46.246
01:06:28.067 : en:01:06:28.067
01:30:39.809 : en:01:30:39.809



   Похожие торренты   Торрент   Размер 
В этой теме нет новых непрочитанных сообщений. Змеиный яд / Venom (1981) BDRemux 1080р | L1

2 | 1

14.57 ГБ

В этой теме нет новых непрочитанных сообщений. День окончания школы / Graduation Day (1981) BDRemux 1080р | L1

0 | 0

20.89 ГБ

В этой теме нет новых непрочитанных сообщений. В последнюю очередь (1981) HDTV 1080р

0 | 0

3.2 ГБ

В этой теме нет новых непрочитанных сообщений. Омен III: Последний конфликт / The Final Conflict (1981) BDRip 1080р от Freeisland

16 | 5

4.37 ГБ

В этой теме нет новых непрочитанных сообщений. Пятница 13 - Часть 2 / Friday the 13th Part 2 (1981) BDRip 1080р от Freeisland

13 | 3

4.37 ГБ

В этой теме нет новых непрочитанных сообщений. Она / Elle (2016) BDRemux 1080р | А

5 | 0

35.49 ГБ

В этой теме нет новых непрочитанных сообщений. Она / Elle (2016) BDRemux 1080р | D, А

5 | 0

35.89 ГБ




Вы не можете начинать темы
Вы не можете отвечать на сообщения
Вы не можете редактировать свои сообщения
Вы не можете удалять свои сообщения
Вы не можете добавлять вложения

Перейти:  
Для Мосгорсуда, Роскомнадзора и рекламодателей: mosgorsud-torrent[собачка]yandex.ru
 Вход
ppkBB3cker v.2 © 2008-2014 @ PPK
[ Time : 0.043s | 16 Queries | GZIP : Off ]

cron