img image001 image001 image001 image001 image001 image001 image001 image001 image001 image001 image001 image001 image001 image001 image001

Planets Sun Sun Sun
Статистика раздачи
Автор: PriZraK | Размер: 2.86 ГБ | Добавлен: 11 янв 2017
Раздают: 169    Качают: 10
Скачать торрент
Скачать торрент
Описание торрента

СообщениеДобавлено: 11 янв 2017 

Инферно / Inferno

«Every clue will take him deeper»

Русское название: Инферно
Оригинальное название: Inferno
Год выпуска: 2016
Жанр: боевик, триллер, драма, криминал, детектив, приключения
Выпущено: Венгрия, США
Режиссер: Рон Ховард
В ролях: Том Хэнкс , Фелисити Джонс , Омар Си , Ирфан Кхан , Сидсе Бабетт Кнудсен , Бен Фостер , Ана Улару , Ида Дарвиш , Paolo Antonio Simioni , Alessandro Grimaldi , Фаусто Мария Шиараппа , Робин Мунаини
Перевод: Дублированный - [iTunes]


Сюжет фильма:
Профессор Роберт Лэнгдон приходит в сознание в одной из итальянских больниц, полностью потеряв память. Местный врач Сиенна Брукс пытается помочь Роберту не только восстановить воспоминания, но и остановить загадочных злоумышленников, которые намерены распространить смертоносный вирус. Разгадка таинственной истории связана с «Адом» (ит. Inferno) - первой частью «Божественной комедии» Данте.



Качество: BDRip-AVC
Формат: AVC (библиотека кодирования x.264)
Контейнер (Расширение): MKV
Видео: 1024x554, 2531 Кбит/сек, 23,976 кадр/сек, 0,186 Бит/[Пиксели*Кадры]
Аудио №1: русский / AC3 / 5.1 / 48 kHz / 384 kbps / |Дублированный|
Аудио №2: английский / AC3 / 5.1 / 48 kHz / 448 kbps /
Субтитры: русские (Forced), русские (iTunes), английские (Forced), английские
Навигация по главам(Чаптеры): есть
Продолжительность: 02:01:35

Автор рипа: Группа:


Format : Matroska
Format version : Version 2
File size : 2.86 GiB
Duration : 2 h 1 min
Overall bit rate : 3 365 kb/s
Movie name : Inferno.(2016).BDRip-AVC.[denis100]
Encoded date : UTC 2017-01-11 10:46:07
Writing application : mkvmerge v5.8.0 ('No Sleep / Pillow') built on Sep 2 2012 15:37:04
Writing library : libebml v1.2.3 + libmatroska v1.3.0

Video
ID : 1
Format : AVC
Format/Info : Advanced Video Codec
Format profile : High@L4.1
Format settings, CABAC : Yes
Format settings, ReFrames : 11 frames
Codec ID : V_MPEG4/ISO/AVC
Duration : 2 h 1 min
Bit rate : 2 531 kb/s
Width : 1 024 pixels
Height : 554 pixels
Display aspect ratio : 1.85:1
Frame rate mode : Constant
Frame rate : 23.976 (24000/1001) FPS
Color space : YUV
Chroma subsampling : 4:2:0
Bit depth : 8 bits
Scan type : Progressive
Bits/(Pixel*Frame) : 0.186
Stream size : 2.09 GiB (73%)
Title : Inferno.(2016).BDRip-AVC.[denis100]
Writing library : x264 core 148 r2744 b97ae06
Encoding settings : cabac=1 / ref=11 / deblock=1:-3:-3 / analyse=0x3:0x133 / me=umh / subme=11 / psy=1 / psy_rd=1.00:0.10 / mixed_ref=1 / me_range=32 / chroma_me=1 / trellis=2 / 8x8dct=1 / cqm=0 / deadzone=21,11 / fast_pskip=0 / chroma_qp_offset=-3 / threads=6 / lookahead_threads=1 / sliced_threads=0 / nr=0 / decimate=1 / interlaced=0 / bluray_compat=0 / constrained_intra=0 / bframes=12 / b_pyramid=2 / b_adapt=2 / b_bias=0 / direct=3 / weightb=1 / open_gop=0 / weightp=2 / keyint=240 / keyint_min=23 / scenecut=40 / intra_refresh=0 / rc=2pass / mbtree=0 / bitrate=2531 / ratetol=1.0 / qcomp=0.60 / qpmin=0 / qpmax=69 / qpstep=4 / cplxblur=20.0 / qblur=0.5 / ip_ratio=1.40 / pb_ratio=1.30 / aq=1:0.75
Language : English
Default : Yes
Forced : No

Audio #1
ID : 2
Format : AC-3
Format/Info : Audio Coding 3
Mode extension : CM (complete main)
Format settings, Endianness : Big
Codec ID : A_AC3
Duration : 2 h 1 min
Bit rate mode : Constant
Bit rate : 384 kb/s
Channel(s) : 6 channels
Channel positions : Front: L C R, Side: L R, LFE
Sampling rate : 48.0 kHz
Frame rate : 31.250 FPS (1536 spf)
Compression mode : Lossy
Delay relative to video : 25 ms
Stream size : 334 MiB (11%)
Title : Дублированный
Language : Russian
Default : Yes
Forced : No

Audio #2
ID : 3
Format : AC-3
Format/Info : Audio Coding 3
Mode extension : CM (complete main)
Format settings, Endianness : Big
Codec ID : A_AC3
Duration : 2 h 1 min
Bit rate mode : Constant
Bit rate : 448 kb/s
Channel(s) : 6 channels
Channel positions : Front: L C R, Side: L R, LFE
Sampling rate : 48.0 kHz
Frame rate : 31.250 FPS (1536 spf)
Compression mode : Lossy
Stream size : 390 MiB (13%)
Language : English
Default : No
Forced : No

Text #1
ID : 4
Format : UTF-8
Codec ID : S_TEXT/UTF8
Codec ID/Info : UTF-8 Plain Text
Title : Forced
Language : Russian
Default : Yes
Forced : No

Text #2
ID : 5
Format : UTF-8
Codec ID : S_TEXT/UTF8
Codec ID/Info : UTF-8 Plain Text
Title : iTunes
Language : Russian
Default : No
Forced : No

Text #3
ID : 6
Format : UTF-8
Codec ID : S_TEXT/UTF8
Codec ID/Info : UTF-8 Plain Text
Title : Forced
Language : English
Default : No
Forced : No

Text #4
ID : 7
Format : UTF-8
Codec ID : S_TEXT/UTF8
Codec ID/Info : UTF-8 Plain Text
Language : English
Default : No
Forced : No

Menu
00:00:00.000 : en:00:00:00.000
00:04:13.545 : en:00:04:13.545
00:12:32.919 : en:00:12:32.919
00:23:43.005 : en:00:23:43.005
00:36:03.161 : en:00:36:03.161
00:51:11.652 : en:00:51:11.652
00:59:16.595 : en:00:59:16.595
01:01:42.908 : en:01:01:42.908
01:07:42.517 : en:01:07:42.517
01:13:25.234 : en:01:13:25.234
01:20:02.256 : en:01:20:02.256
01:24:37.364 : en:01:24:37.364
01:31:25.271 : en:01:31:25.271
01:35:42.111 : en:01:35:42.111
01:40:51.128 : en:01:40:51.128
01:52:27.908 : en:01:52:27.908



   Похожие торренты   Торрент   Размер 
В этой теме нет новых непрочитанных сообщений. Инферно / Inferno (2016) BDRip от ExKinoRay | iTunes

24 | 8

1.46 ГБ

В этой теме нет новых непрочитанных сообщений. Инферно / Inferno (2016) BDRip от MegaPeer | iTunes

11 | 2

1.47 ГБ

В этой теме нет новых непрочитанных сообщений. Инферно / Inferno (2016) BDRip | iPad | iTunes

32 | 11

2.2 ГБ

В этой теме нет новых непрочитанных сообщений. Инферно / Inferno (2016) BDRip от ExKinoRay | iTunes

76 | 4

2.13 ГБ

В этой теме нет новых непрочитанных сообщений. Инферно / Inferno (2016) BDRip от MegaPeer | iTunes

7 | 3

2.13 ГБ

В этой теме нет новых непрочитанных сообщений. Инферно / Inferno (2016) BDRip 720p от ExKinoRay | iTunes

5 | 2

10.18 ГБ

В этой теме нет новых непрочитанных сообщений. Инферно / Inferno (2016) BDRip 1080p от ExKinoRay | iTunes

5 | 3

14.92 ГБ




Вы не можете начинать темы
Вы не можете отвечать на сообщения
Вы не можете редактировать свои сообщения
Вы не можете удалять свои сообщения
Вы не можете добавлять вложения

Перейти:  
Для Мосгорсуда, Роскомнадзора и рекламодателей: mosgorsud-torrent[собачка]yandex.ru
 Вход
ppkBB3cker v.2 © 2008-2014 @ PPK
[ Time : 0.068s | 18 Queries | GZIP : Off ]

Торрент трекер RUTOR.IN, Не можете зайти на rutor.org? Какой новый адрес рутор? Какое зеркало рутор? Не работает rutor.org и зеркала? Тогда наш торрент специально для вас. Rutor.in неофициальное зеркало rutor. В случае если у Вас заблокирован rutor или вдруг Вы не можете на него зайти, то Вы без труда сможете скачать бесплатно и без рекламы последние новинки кино, игр, сериалов и прочего у нас, на Rutor.in. Не нужно использовать прокси, чтобы зайти на рутор, достаточно воспользоваться нашим ресурсом. Все новые фильмы, игры, сериалы, книги и музыка за 2013 и 2014 годы через торрент бесплатно. Скачивайте фильмы в хорошем качестве, игры для пк, xbox, playstation без регистрации. У нас вы найдете новые Зарубежные сериалы и Русские сериалы 2013, 2014, 2015 годов. Оставайтесь с нами, качайте любимые фильмы, игры, сериалы, книги и музыку.
cron