img image001 image001 image001 image001 image001 image001 image001 image001 image001 image001 image001 image001 image001 image001 image001

Planets Sun Sun Sun
Статистика раздачи
Автор: PriZraK | Размер: 8.9 ГБ | Добавлен: 11 янв 2017
Раздают: 12    Качают: 0
Скачать торрент
Скачать торрент
Описание торрента

СообщениеДобавлено: 11 янв 2017 

Название: Голод
Оригинальное название: Hunger
Год выхода: 2009
Страна: США
Студия: 5 States, Global Empire Studios, Liberty Artists
Продолжительность: 01:36:57
Жанр: ужасы, триллер, ...

Режиссер: Стивен Хентджес
В ролях: Лори Хёринг, Линден Эшби, Джо Эгендер, Лиа Кол, Джулиан Рохас, Бьорн Джонсон, Бриттен Пэртэйн, Джон Кули, Йен Хоппер, ...

Перевод: Профессиональный (многоголосный, закадровый) West Video

О фильме: Голод — это одно из самых страшных чувств человечества. Как далеко можно зайти, чтобы выжить в чрезвычайных обстоятельствах? Пятеро незнакомых друг с другом людей просыпаются в подземной темнице, из которой нет выхода. Вскоре они понимают, что стали жертвами садистского эксперимента по проверке желания человека выжить. Проходит день за днём без надежды на спасение, а вместо этого приходит чувство страшного голода, которое уничтожает всё человеческое в несчастных людях…

Кодек: x264
Качество: BDRip 1080p
Видео: 1920x1080, 11000 kbps, 25 fps
Аудио #1: AC-3, 6 ch, 640 kbps (Rus) - MVO West Video
Аудио #2: DTS, 6 ch, 1509 kbps (Eng)
Субтитры: Русские, Английские
За исходник спасибо - Skazhutin

Сравниваем с DVD:


x264 [info]: frame I:807 Avg QP:14.84 size:175482
x264 [info]: frame P:27924 Avg QP:17.12 size: 78268
x264 [info]: frame B:116701 Avg QP:19.85 size: 48547
x264 [info]: consecutive B-frames: 2.1% 3.3% 4.8% 11.7% 11.9% 27.2% 13.4% 5.5% 9.1% 4.8% 1.7% 3.1% 1.5%

Общее
Уникальный идентификатор : 212628089898205910928062146668190894477 (0x9FF6AE378F6A338693F07ED4E5BE098D)
Полное имя : Голод (Hunger) 2009 BDRip 1080p.mkv
Формат : Matroska
Версия формата : Version 2
Размер файла : 8,90 Гбайт
Продолжительность : 1 ч. 36 м.
Общий поток : 13,1 Мбит/сек
Дата кодирования : UTC 2017-01-11 14:28:07
Программа кодирования : mkvmerge v4.0.0 ('The Stars were mine') сборка от Jun 6 2010 16:18:42
Библиотека кодирования : libebml v1.0.0 + libmatroska v1.0.0

Видео
Идентификатор : 1
Формат : AVC
Формат/Информация : Advanced Video Codec
Профиль формата : High@L4.1
Параметр CABAC формата : Да
Параметр ReFrames формата : 4 кадра
Идентификатор кодека : V_MPEG4/ISO/AVC
Продолжительность : 1 ч. 36 м.
Битрейт : 11,0 Мбит/сек
Ширина : 1920 пикселей
Высота : 1080 пикселей
Соотношение сторон : 16:9
Режим частоты кадров : Постоянный
Частота кадров : 25,000 кадров/сек
Цветовое пространство : YUV
Субдискретизация насыщенности : 4:2:0
Битовая глубина : 8 бит
Тип развёртки : Прогрессивная
Бит/(Пиксели*Кадры) : 0.212
Размер потока : 7,27 Гбайт (82%)
Библиотека кодирования : x264 core 146 r2538 121396c
Настройки программы : cabac=1 / ref=4 / deblock=1:-3:-3 / analyse=0x3:0x133 / me=umh / subme=11 / psy=1 / psy_rd=1.00:0.00 / mixed_ref=1 / me_range=32 / chroma_me=1 / trellis=2 / 8x8dct=1 / cqm=0 / deadzone=21,11 / fast_pskip=0 / chroma_qp_offset=-2 / threads=12 / lookahead_threads=2 / sliced_threads=0 / nr=0 / decimate=0 / interlaced=0 / bluray_compat=0 / constrained_intra=0 / bframes=12 / b_pyramid=2 / b_adapt=2 / b_bias=0 / direct=3 / weightb=1 / open_gop=0 / weightp=2 / keyint=250 / keyint_min=25 / scenecut=40 / intra_refresh=0 / rc=2pass / mbtree=0 / bitrate=11000 / ratetol=1.0 / qcomp=0.60 / qpmin=0 / qpmax=69 / qpstep=4 / cplxblur=20.0 / qblur=0.5 / ip_ratio=1.40 / pb_ratio=1.30 / aq=1:0.80
Язык : English
Default : Нет
Forced : Нет

Аудио #1
Идентификатор : 2
Формат : AC-3
Формат/Информация : Audio Coding 3
Расширение режима : CM (complete main)
Параметр Endianness формата : Big
Идентификатор кодека : A_AC3
Продолжительность : 1 ч. 36 м.
Вид битрейта : Постоянный
Битрейт : 640 Кбит/сек
Каналы : 6 каналов
Расположение каналов : Front: L C R, Side: L R, LFE
Частота : 48,0 КГц
Частота кадров : 31,250 кадров/сек (1536 spf)
Метод сжатия : С потерями
Размер потока : 444 Мбайт (5%)
Заголовок : MVO West Video
Язык : Russian
Default : Нет
Forced : Нет

Аудио #2
Идентификатор : 3
Формат : DTS
Формат/Информация : Digital Theater Systems
Режим : 16
Параметр Endianness формата : Big
Идентификатор кодека : A_DTS
Продолжительность : 1 ч. 36 м.
Вид битрейта : Постоянный
Битрейт : 1509 Кбит/сек
Каналы : 6 каналов
Расположение каналов : Front: L C R, Side: L R, LFE
Частота : 48,0 КГц
Частота кадров : 93,750 кадра/сек (512 spf)
Битовая глубина : 16 бит
Метод сжатия : С потерями
Размер потока : 1,02 Гбайт (11%)
Язык : English
Default : Нет
Forced : Нет

Текст #1
Идентификатор : 4
Формат : UTF-8
Идентификатор кодека : S_TEXT/UTF8
Идентификатор кодека/Информация : UTF-8 Plain Text
Язык : Russian
Default : Нет
Forced : Нет

Текст #2
Идентификатор : 5
Формат : UTF-8
Идентификатор кодека : S_TEXT/UTF8
Идентификатор кодека/Информация : UTF-8 Plain Text
Язык : English
Default : Нет
Forced : Нет





   Похожие торренты   Торрент   Размер 
В этой теме нет новых непрочитанных сообщений. Голод / Hunger (2009) BDRip от HQCLUB | Лицензия

8 | 0

1.45 ГБ

В этой теме нет новых непрочитанных сообщений. Голод / Hunger (2009) BDRip 720p | P | Лицензия

29 | 0

4.37 ГБ

В этой теме нет новых непрочитанных сообщений. Голод / The Hunger (1983) BDRip 1080p от NNNB | P, A

30 | 0

7.88 ГБ

В этой теме нет новых непрочитанных сообщений. Голод / The Hunger (1983) BDRip 1080p by msltel

49 | 10

7.29 ГБ

В этой теме нет новых непрочитанных сообщений. Голод / Hunger (2009) DVDRip-AVC | P

78 | 10

3.57 ГБ

В этой теме нет новых непрочитанных сообщений. Голод / Hunger (2009) DVDRemux | P

12 | 6

3.78 ГБ

В этой теме нет новых непрочитанных сообщений. Голод / Hunger (2009) HDRip | Лицензия

302 | 27

1.46 ГБ




Вы не можете начинать темы
Вы не можете отвечать на сообщения
Вы не можете редактировать свои сообщения
Вы не можете удалять свои сообщения
Вы не можете добавлять вложения

Перейти:  
Для Мосгорсуда, Роскомнадзора и рекламодателей: mosgorsud-torrent[собачка]yandex.ru
 Вход
ppkBB3cker v.2 © 2008-2014 @ PPK
[ Time : 0.062s | 17 Queries | GZIP : Off ]

Торрент трекер RUTOR.IN, Не можете зайти на rutor.org? Какой новый адрес рутор? Какое зеркало рутор? Не работает rutor.org и зеркала? Тогда наш торрент специально для вас. Rutor.in неофициальное зеркало rutor. В случае если у Вас заблокирован rutor или вдруг Вы не можете на него зайти, то Вы без труда сможете скачать бесплатно и без рекламы последние новинки кино, игр, сериалов и прочего у нас, на Rutor.in. Не нужно использовать прокси, чтобы зайти на рутор, достаточно воспользоваться нашим ресурсом. Все новые фильмы, игры, сериалы, книги и музыка за 2013 и 2014 годы через торрент бесплатно. Скачивайте фильмы в хорошем качестве, игры для пк, xbox, playstation без регистрации. У нас вы найдете новые Зарубежные сериалы и Русские сериалы 2013, 2014, 2015 годов. Оставайтесь с нами, качайте любимые фильмы, игры, сериалы, книги и музыку.
cron