img image001 image001 image001 image001 image001 image001 image001 image001 image001 image001 image001 image001 image001 image001 image001

Planets Sun Sun Sun
Статистика раздачи
Автор: PriZraK | Размер: 2.75 ГБ | Добавлен: 13 янв 2017
Раздают: 304    Качают: 6
Скачать торрент
Скачать торрент
Описание торрента

СообщениеДобавлено: 13 янв 2017 

Информация о фильме
Название: Девушка в поезде
Оригинальное название: The Girl on the Train
Год выпуска: 2016
Страна: США
Жанр: триллер, драма, детектив

Перевод: Дубляж - [iTunes]
Субтитры: русские (Forced), английские (Full), английские (SDH)
Продолжительность: 01:52:05

Режиссер: Тейт Тейлор
В ролях: Эмили Блант (Rachel), Хейли Беннетт (Megan), Ребекка Фергюсон (Anna), Джастин Теру (Tom), Люк Эванс (Scott), Эдгар Рамирес (Dr. Kamal Abdic), Лора Припон (Cathy), Эллисон Дженни (Detective Riley), Даррен Голдштейн (Man in the Suit), Лиза Кудроу (Martha), Клета Элейн Эллингтон (Oyster Bar Woman), Лана Янг (Doctor)


Описание:
Каждый день поезд проносит Рэйчел мимо очаровательного коттеджа, где живет идеальная на первый взгляд пара. Но однажды идиллия разрушится - прекрасная незнакомка бесследно исчезнет. Рэйчел окажется втянута в весьма запутанную историю, ведь только она видела из окна то, что было скрыто ото всех.

Рейтинг:

MPAA: R - Лицам до 17 лет обязательно присутствие взрослого

Качество: BDRip-AVC
Формат: MKV
Видео: AVC, 1024x552 (1.85:1), 2682 kbps, 23,976 fps, 0,198 bpp
Аудио №1: русский / AC3 / 5.1 / 48 kHz / 384 kbps / |Дубляж, iTunes|
Аудио №2: английский / AC3 / 5.1 / 48 kHz / 448 kbps /
Навигация по главам: есть
Сэмпл


Релиз от: by -Lexx-


General
Unique ID : 205750467897339581357587342566019266141 (0x9ACA1945AEA96933A2FCA1123B9F765D)
Complete name : E:The.Girl.on.the.Train.2016.BDRip.AVC.by.R.G.Resident.mkv
Format : Matroska
Format version : Version 4 / Version 2
File size : 2.75 GiB
Duration : 1 h 52 min
Overall bit rate : 3 515 kb/s
Movie name : The Girl on the Train (2016) BDRip-AVC от R.G. Resident
Encoded date : UTC 2017-01-13 07:08:51
Writing application : mkvmerge v9.7.1 ('Pandemonium') 64bit
Writing library : libebml v1.3.4 + libmatroska v1.4.5
Cover : Yes
Attachments : cover.jpg
Video
ID : 1
Format : AVC
Format/Info : Advanced Video Codec
Format profile : High@L4.1
Format settings, CABAC : Yes
Format settings, ReFrames : 9 frames
Codec ID : V_MPEG4/ISO/AVC
Duration : 1 h 52 min
Bit rate : 2 682 kb/s
Width : 1 024 pixels
Height : 552 pixels
Display aspect ratio : 1.85:1
Frame rate mode : Constant
Frame rate : 23.976 FPS
Color space : YUV
Chroma subsampling : 4:2:0
Bit depth : 8 bits
Scan type : Progressive
Bits/(Pixel*Frame) : 0.198
Stream size : 2.10 GiB (76%)
Title : -Lexx-
Writing library : x264 core 146 r2538 121396c
Encoding settings : cabac=1 / ref=9 / deblock=1:-2:-2 / analyse=0x3:0x113 / me=umh / subme=11 / psy=1 / psy_rd=1.00:0.10 / mixed_ref=1 / me_range=48 / chroma_me=1 / trellis=2 / 8x8dct=1 / cqm=0 / deadzone=21,11 / fast_pskip=0 / chroma_qp_offset=-3 / threads=6 / lookahead_threads=2 / sliced_threads=0 / nr=0 / decimate=0 / interlaced=0 / bluray_compat=0 / constrained_intra=0 / bframes=10 / b_pyramid=2 / b_adapt=2 / b_bias=0 / direct=3 / weightb=1 / open_gop=0 / weightp=2 / keyint=240 / keyint_min=23 / scenecut=40 / intra_refresh=0 / rc=2pass / mbtree=0 / bitrate=2682 / ratetol=1.0 / qcomp=0.60 / qpmin=0 / qpmax=69 / qpstep=4 / cplxblur=20.0 / qblur=0.5 / ip_ratio=1.40 / pb_ratio=1.30 / aq=1:1.00
Language : English
Default : Yes
Forced : No
Audio #1
ID : 2
Format : AC-3
Format/Info : Audio Coding 3
Mode extension : CM (complete main)
Format settings, Endianness : Big
Codec ID : A_AC3
Duration : 1 h 52 min
Bit rate mode : Constant
Bit rate : 384 kb/s
Channel(s) : 6 channels
Channel positions : Front: L C R, Side: L R, LFE
Sampling rate : 48.0 kHz
Frame rate : 31.250 FPS (1536 spf)
Compression mode : Lossy
Delay relative to video : 16 ms
Stream size : 308 MiB (11%)
Title : Дубляж, iTunes
Language : Russian
Default : Yes
Forced : No
Audio #2
ID : 3
Format : AC-3
Format/Info : Audio Coding 3
Mode extension : CM (complete main)
Format settings, Endianness : Big
Codec ID : A_AC3
Duration : 1 h 52 min
Bit rate mode : Constant
Bit rate : 448 kb/s
Channel(s) : 6 channels
Channel positions : Front: L C R, Side: L R, LFE
Sampling rate : 48.0 kHz
Frame rate : 31.250 FPS (1536 spf)
Compression mode : Lossy
Stream size : 359 MiB (13%)
Title : Оригинал
Language : English
Default : No
Forced : No
Text #1
ID : 4
Format : UTF-8
Codec ID : S_TEXT/UTF8
Codec ID/Info : UTF-8 Plain Text
Duration : 1 h 22 min
Bit rate : 1 b/s
Count of elements : 26
Stream size : 1.01 KiB (0%)
Title : Forced
Language : Russian
Default : Yes
Forced : No
Text #2
ID : 5
Format : UTF-8
Codec ID : S_TEXT/UTF8
Codec ID/Info : UTF-8 Plain Text
Duration : 1 h 44 min
Bit rate : 44 b/s
Count of elements : 1185
Stream size : 33.9 KiB (0%)
Title : Full
Language : English
Default : No
Forced : No
Text #3
ID : 6
Format : UTF-8
Codec ID : S_TEXT/UTF8
Codec ID/Info : UTF-8 Plain Text
Duration : 1 h 45 min
Bit rate : 48 b/s
Count of elements : 1321
Stream size : 37.2 KiB (0%)
Title : SDH
Language : English
Default : No
Forced : No
Menu
00:00:00.000 : en:00:00:00.000
00:04:55.128 : en:00:04:55.128
00:11:38.531 : en:00:11:38.531
00:17:30.007 : en:00:17:30.007
00:23:07.469 : en:00:23:07.469
00:29:35.816 : en:00:29:35.816
00:35:21.953 : en:00:35:21.953
00:42:35.678 : en:00:42:35.678
00:49:51.822 : en:00:49:51.822
00:55:14.186 : en:00:55:14.186
00:59:26.062 : en:00:59:26.062
01:05:48.027 : en:01:05:48.027
01:10:52.957 : en:01:10:52.957
01:13:14.724 : en:01:13:14.724
01:22:34.032 : en:01:22:34.032
01:31:42.956 : en:01:31:42.956
01:42:29.101 : en:01:42:29.101
01:51:31.018 : en:01:51:31.018
02:01:29.324 : en:02:01:29.324
02:07:08.621 : en:02:07:08.621



   Похожие торренты   Торрент   Размер 
В этой теме нет новых непрочитанных сообщений. Девушка в поезде / The Girl on the Train (2016) BDRip от MegaPeer | iTunes

29 | 1

1.41 ГБ

В этой теме нет новых непрочитанных сообщений. Девушка в поезде / The Girl on the Train (2016) BDRip от ExKinoRay | iTunes

31 | 6

1.41 ГБ

В этой теме нет новых непрочитанных сообщений. Девушка в поезде / The Girl on the Train (2016) BDRip 720p от Scarabey | iTunes

238 | 60

4.69 ГБ

В этой теме нет новых непрочитанных сообщений. Девушка в поезде / The Girl on the Train (2016) BDRip 1080p от ExKinoRay | iTunes

5 | 3

10.78 ГБ

В этой теме нет новых непрочитанных сообщений. Девушка в поезде / The Girl on the Train (2016) BDRip 720p от ExKinoRay | iTunes

51 | 3

4.91 ГБ

В этой теме нет новых непрочитанных сообщений. Девушка в поезде / The Girl on the Train (2016) BDRip 1080p от New-Team & qqss44 | iTunes

580 | 39

7.54 ГБ

В этой теме нет новых непрочитанных сообщений. Девушка в поезде / The Girl on the Train (2016) WEB-DLRip-AVC | iTunes

16 | 6

1.4 ГБ




Вы не можете начинать темы
Вы не можете отвечать на сообщения
Вы не можете редактировать свои сообщения
Вы не можете удалять свои сообщения
Вы не можете добавлять вложения

Перейти:  
Для Мосгорсуда, Роскомнадзора и рекламодателей: mosgorsud-torrent[собачка]yandex.ru
 Вход
ppkBB3cker v.2 © 2008-2014 @ PPK
[ Time : 0.032s | 18 Queries | GZIP : Off ]

cron