img image001 image001 image001 image001 image001 image001 image001 image001 image001 image001 image001 image001 image001 image001 image001 image001

Planets Sun Sun Sun
Статистика раздачи
Автор: Nickolas3434 | Размер: 1.46 ГБ | Добавлен: 19 янв 2017
Раздают: 2    Качают: 7
Скачать торрент
Скачать торрент
Описание торрента

СообщениеДобавлено: 19 янв 2017 

Информация о фильме
Название: Война Мерфи
Оригинальное название: Murphy’s War
Год выхода: 1971
Жанр: боевик, драма, военный
Режиссер: Питер Йетс
В ролях: Питер О’Тул (Murphy), Шан Филлипс (Hayden), Филипп Нуаре (Brezan), Хорст Янсон (Lauchs), Джон Хэллам (Ellis), Инго Могендорф (Voght), Гарри Филдер (German Sub Crewman), Джордж Рубисек (U-Boat Crewman)
О фильме:
Мерфи (Питер О'Тул) - единственный член экипажа, оставшийся в живых после нападения немецкой подлодки на ирландское торговое судно в конце Второй мировой войны у берегов Венесуэлы. Раненым он попадает в британский госпиталь, расположенный в тропической деревне, где его выхаживает медсестра Холден, искренне сочувствующая герою. Мерфи не может забыть своих погибших товарищей, он горит ненавистью к немецкой субмарине и мечтает отомстить. Узнав, что на одном из островов в джунглях обнаружен неисправный морской самолет, Мерфи находит его, восстанавливает и готовится к боевому вылету, самостоятельно осваивая пилотирование.
Приходит май сорок пятого, Германия капитулирует, но Мерфи это известие уже не остановит - он должен отомстить врагам, потопившим его корабль. И Мерфи объявляет свою личную войну подводной лодке...

Страна: Великобритания
Студия: Hemdale
Продолжительность: 01:46:38
Перевод: Профессиональный (многоголосый закадровый)
Файл
Кодек: XviD
Качество: WEB-DLRip [HDclub_Murphy's.War.1971.1080p.WEB-DL.AAC2.0.H.264-alinto]
Видео: 720x304, 23.976 fps, XviD build 73, ~1754 kbps
Аудио: 48 kHz, AC3 Dolby Digital, 2/0 (L,R) ch, ~192.00 kbps
Субтитры: нет
General
Complete name : D:Война Мерфи.(1971).WEB-DLRIP.[-=DoMiNo=-].avi
Format : AVI
Format/Info : Audio Video Interleave
File size : 1.46 GiB
Duration : 1 h 46 min
Overall bit rate : 1 955 kb/s
Writing library : VirtualDub build 35491/release
Video
ID : 0
Format : MPEG-4 Visual
Format profile : Advanced Simple@L5
Format settings, BVOP : 2
Format settings, QPel : No
Format settings, GMC : No warppoints
Format settings, Matrix : Custom
Muxing mode : Packed bitstream
Codec ID : XVID
Codec ID/Hint : XviD
Duration : 1 h 46 min
Bit rate : 1 754 kb/s
Width : 720 pixels
Height : 304 pixels
Display aspect ratio : 2.35:1
Frame rate : 23.976 (24000/1001) FPS
Color space : YUV
Chroma subsampling : 4:2:0
Bit depth : 8 bits
Scan type : Progressive
Compression mode : Lossy
Bits/(Pixel*Frame) : 0.334
Stream size : 1.31 GiB (90%)
Writing library : XviD 73
Audio
ID : 1
Format : AC-3
Format/Info : Audio Coding 3
Mode extension : CM (complete main)
Format settings, Endianness : Big
Codec ID : 2000
Duration : 1 h 46 min
Bit rate mode : Constant
Bit rate : 192 kb/s
Channel(s) : 2 channels
Channel positions : Front: L R
Sampling rate : 48.0 kHz
Frame rate : 31.250 FPS (1536 spf)
Bit depth : 16 bits
Compression mode : Lossy
Stream size : 146 MiB (10%)
Alignment : Aligned on interleaves
Interleave, duration : 42 ms (1.00 video frame)
Interleave, preload duratio : 512 ms



   Похожие торренты   Торрент   Размер 
В этой теме нет новых непрочитанных сообщений. Война Мерфи / Murphy’s War (1971) WEB-DLRip-AVC | P

2 | 1

1.45 ГБ

В этой теме нет новых непрочитанных сообщений. Война Мерфи / Murphy’s War (1971) WEB-DLRip 720p | P

0 | 1

3.59 ГБ

В этой теме нет новых непрочитанных сообщений. Война Мерфи / Murphy’s War (1971) WEB-DL 1080p | P

0 | 6

8.27 ГБ

В этой теме нет новых непрочитанных сообщений. Любовь Мёрфи / Роман Мёрфи / Murphy's Romance (1985) DVDRip | P

1 | 6

1.45 ГБ

В этой теме нет новых непрочитанных сообщений. Закон Мерфи / Murphy's Law (1986) HDRip | P

6 | 0

1.45 ГБ

В этой теме нет новых непрочитанных сообщений. Закон Мерфи / Murphy's Law (1986) BDRip 1080p | P, A

23 | 10

7.64 ГБ

В этой теме нет новых непрочитанных сообщений. Закон Мерфи / Murphy's Law (1986) BDRemux 1080p | P, A

0 | 0

24.3 ГБ




Вы не можете начинать темы
Вы не можете отвечать на сообщения
Вы не можете редактировать свои сообщения
Вы не можете удалять свои сообщения
Вы не можете добавлять вложения

Перейти:  
 Вход
ppkBB3cker v.2 © 2008-2014 @ PPK
[ Time : 0.035s | 17 Queries | GZIP : Off ]

cron