img image001 image001 image001 image001 image001 image001 image001 image001 image001 image001 image001 image001 image001 image001 image001

Planets Sun Sun Sun

COVID-19 - Последняя информация о коронавирусе на сайте Минздрава


Статистика раздачи
Автор: Nickolas3434 | Размер: 6.44 ГБ | Добавлен: 22 янв 2017
Раздают: 0    Качают: 4
Скачать торрент
Скачать торрент
Описание торрента

СообщениеДобавлено: 22 янв 2017 

Название: Городские легенды 2: Последний отрезок
Оригинальное название: Urban Legends: Final Cut
Год выхода: 2000
Страна: США, Франция
Студия: Phoenix Pictures, Canal+ Droits Audiovisuels, Original Film
Продолжительность: 01:38:19
Жанр: ужасы, триллер, детектив
Режиссер: Джон Оттмен
В ролях: Дженнифер Моррисон, Мэттью Дэвис, Харт Бокнер, Лоретта Дивайн, Джозеф Лоуренс, Энсон Маунт, Ева Мендес, Энтони Андерсон, Джессика Коффил, Майкл Бэколл, ...
Перевод: Профессиональный (двухголосый, закадровый) с DVD от Columbia/Sony
О фильме: Студентка университета Эми снимает свой дипломный фильм о городских легендах, страшных историях, порожденных первобытным хаосом современных мегаполисов.
Во время съемок происходит таинственная череда загадочных и кровавых событий. Из режиссера Эми должна стать сыщиком — иначе к концу своей картины она сама станет городской легендой…

Кодек: x264
Качество: WEBRip 1080p
Видео: 1920x1080, 8365 kbps, 23,976 fps
Аудио #1: AC-3, 2 ch, 192 kbps (Rus) - DVO DVD Columbia/Sony
Аудио #2: AC-3, 6 ch, 640 kbps (Eng)
Субтитры: английские
Общее
Уникальный идентификатор : 175334226501699578860340306788478535307 (0x83E824CA2653280295DE2F50B61AC68B)
Полное имя : E:ТоррентГородские легенды 2 Последний отрезок (Urban Legends Final Cut) 2000 WEBRip 1080p.mkv
Формат : Matroska
Версия формата : Version 2
Размер файла : 6,44 Гбайт
Продолжительность : 1 ч. 38 м.
Режим общего битрейта : Переменный
Общий поток : 9384 Кбит/сек
Дата кодирования : UTC 2017-01-17 12:18:51
Программа кодирования : mkvmerge v4.0.0 ('The Stars were mine') сборка от Jun 6 2010 16:18:42
Библиотека кодирования : libebml v1.0.0 + libmatroska v1.0.0
Видео
Идентификатор : 1
Формат : AVC
Формат/Информация : Advanced Video Codec
Профиль формата : High@L4.0
Параметр CABAC формата : Да
Параметр ReFrames формата : 4 кадра
Идентификатор кодека : V_MPEG4/ISO/AVC
Продолжительность : 1 ч. 38 м.
Вид битрейта : Переменный
Битрейт : 8365 Кбит/сек
Максимальный битрейт : 15,0 Мбит/сек
Ширина : 1920 пикселей
Высота : 1080 пикселей
Соотношение сторон : 16:9
Режим частоты кадров : Постоянный
Частота кадров : 23,976 кадра/сек
Цветовое пространство : YUV
Субдискретизация насыщенности : 4:2:0
Битовая глубина : 8 бит
Тип развёртки : Прогрессивная
Бит/(Пиксели*Кадры) : 0.168
Размер потока : 5,74 Гбайт (89%)
Библиотека кодирования : x264 core 148 r2623 d5b2374
Настройки программы : cabac=1 / ref=4 / deblock=1:-1:-1 / analyse=0x3:0x133 / me=umh / subme=9 / psy=1 / psy_rd=1.00:0.15 / mixed_ref=1 / me_range=24 / chroma_me=1 / trellis=2 / 8x8dct=1 / cqm=0 / deadzone=21,11 / fast_pskip=1 / chroma_qp_offset=-3 / threads=34 / lookahead_threads=5 / sliced_threads=0 / nr=150 / decimate=1 / interlaced=0 / bluray_compat=0 / constrained_intra=0 / bframes=8 / b_pyramid=2 / b_adapt=2 / b_bias=0 / direct=3 / weightb=1 / open_gop=0 / weightp=2 / keyint=120 / keyint_min=61 / scenecut=0 / intra_refresh=0 / rc_lookahead=120 / rc=crf / mbtree=1 / crf=18.0 / qcomp=0.60 / qpmin=0 / qpmax=69 / qpstep=4 / vbv_maxrate=15000 / vbv_bufsize=31250 / crf_max=0.0 / nal_hrd=vbr / filler=0 / ip_ratio=1.40 / aq=3:1.00
Язык : English
Default : Нет
Forced : Нет
Основные цвета : BT.709
Характеристики трансфера : BT.709
Коэффициенты матрицы : BT.709
Аудио #1
Идентификатор : 2
Формат : AC-3
Формат/Информация : Audio Coding 3
Расширение режима : CM (complete main)
Параметр Endianness формата : Big
Идентификатор кодека : A_AC3
Продолжительность : 1 ч. 38 м.
Вид битрейта : Постоянный
Битрейт : 192 Кбит/сек
Каналы : 2 канала
Расположение каналов : Front: L R
Частота : 48,0 КГц
Битовая глубина : 16 бит
Метод сжатия : С потерями
Размер потока : 135 Мбайт (2%)
Заголовок : DVO DVD Columbia/Sony
Язык : Russian
Default : Нет
Forced : Нет
Аудио #2
Идентификатор : 3
Формат : AC-3
Формат/Информация : Audio Coding 3
Расширение режима : CM (complete main)
Параметр Endianness формата : Big
Идентификатор кодека : A_AC3
Продолжительность : 1 ч. 38 м.
Вид битрейта : Постоянный
Битрейт : 640 Кбит/сек
Каналы : 6 каналов
Расположение каналов : Front: L C R, Side: L R, LFE
Частота : 48,0 КГц
Битовая глубина : 16 бит
Метод сжатия : С потерями
Размер потока : 450 Мбайт (7%)
Язык : English
Default : Нет
Forced : Нет
Текст
Идентификатор : 4
Формат : UTF-8
Идентификатор кодека : S_TEXT/UTF8
Идентификатор кодека/Информация : UTF-8 Plain Text
Язык : English
Default : Нет
Forced : Нет



   Похожие торренты   Торрент   Размер 
В этой теме нет новых непрочитанных сообщений. Городские легенды 2: Последний отрезок / Urban Legends: Final Cut (2000) BDRip 1080p | P2

1 | 2

8.87 ГБ

В этой теме нет новых непрочитанных сообщений. Городские легенды 3: Кровавая Мэри / Urban Legends: Bloody Mary (2005) WEBRip 1080p | P2

0 | 5

9.79 ГБ

В этой теме нет новых непрочитанных сообщений. Городские Легенды / Urban Myths [S01] (2017) HDTV 720p

23 | 3

3.71 ГБ

В этой теме нет новых непрочитанных сообщений. Городские легенды / Urban Myths (Ким Мари) [2020, триллер, WEB-DLRip] MVO

2 | 0

1.37 ГБ

В этой теме нет новых непрочитанных сообщений. Царь обезьян: Новые легенды / The New Legends of Monkey [S01] (2018) WEBRip 1080p | BaibaKo

6 | 4

10.65 ГБ

В этой теме нет новых непрочитанных сообщений. Легенды завтрашнего дня / DC's Legends of Tomorrow [03х01 из 17] (2017) WEBRip | L

0 | 0

514.94 МБ

В этой теме нет новых непрочитанных сообщений. Легенды завтрашнего дня / DC's Legends of Tomorrow [03х01-09 из 17] (2017) WEBRip | L

3 | 20

4.44 ГБ




Вы не можете начинать темы
Вы не можете отвечать на сообщения
Вы не можете редактировать свои сообщения
Вы не можете удалять свои сообщения
Вы не можете добавлять вложения

Перейти:  
Контактная информация: rstracker[пёсик]yandex.ru
 Вход
ppkBB3cker v.2 © 2008-2014 @ PPK
[ Time : 0.034s | 19 Queries | GZIP : Off ]

cron