img image001 image001 image001 image001 image001 image001 image001 image001 image001 image001 image001 image001 image001 image001 image001

Planets Sun Sun Sun
Статистика раздачи
Автор: Nickolas3434 | Размер: 2.04 ГБ | Добавлен: 22 янв 2017
Раздают: 4    Качают: 1
Скачать торрент
Скачать торрент
Описание торрента

СообщениеДобавлено: 22 янв 2017 

Ричард Львиное Сердце

King Richard and the Crusaders

«Theirs was the mightiest challenge of them all!»



Страна: США
Жанр: мелодрама, приключения, военный, история
Год выпуска: 1954
Продолжительность: 01:48:57
Перевод: Профессиональный (многоголосый, закадровый), Профессиональный (двухголосый, закадровый)


Режиссер: Дэвид Батлер / David Butler


В ролях: Рекс Харрисон (Emir Hderim Sultan Saladin), Вирджиния Майо (Lady Edith Plantagenet), Джордж Сэндерс (King Richard I), Лоуренс Харви (Sir Kenneth of Huntington), Роберт Дуглас (Sir Giles Amaury), Майкл Пэйт (Conrad, Marquis of Montferrat), Пола Рэймонд (Queen Berengaria), Лестер Мэтьюз (Archbishop of Tyre / рассказчик), Энтони Юстрел (Baron De Vaux), Генри Корден (King Philip of France), Вилтон Графф (Duke Leopold of Austria), Nejla Ates (Moorish Dancing Girl)


Описание: Ричард I «Львиное Сердце» - английский король из рода Плантагенетов, правивший в 1189 - 1199 гг. Сын Генриха II и Элеоноры Гиенской. Этот фильм рассказывает о самых бурных годах правления Ричарда «Львиное сердце». В лейтмотив картины положены правдивые истории летописей о любви шотландца Кеннета, и кузины короля - Леди Эдит, а также о влиянии на правление монарха предводителя арабов Саладина, который под видом лекаря проник в лагерь христиан и стал одним из самых приближенных к королю.





Качество: DVDRip
Контейнер: MKV
Видео: AVC, 720x464 @ 1024x464 (2.20:1), 2100 kbps, 25 fps, 0,251 bpp
Аудио №1: русский / AC3 / 2.0 / 48 kHz / 192 kbps / MVO ( ООО Светла )
Аудио №2: русский / AC3 / 2.0 / 48 kHz / 192 kbps / DVO ( НТВ+ (по заказу НТВ) )
Аудио №3: английский / AC3 / 2.0 / 48 kHz / 192 kbps
Навигация по главам: есть


Формат : Matroska
Версия формата : Version 2
Размер файла : 2,04 Гбайт
Продолжительность : 1 ч. 48 м.
Общий поток : 2679 Кбит/сек
Название фильма : = Ричард Львиное Сердце / King Richard and the Crusaders (1954) DVDRip-AVC by SC Kosmos =
Дата кодирования : UTC 2017-01-21 17:02:09
Программа кодирования : mkvmerge v5.8.0 ('No Sleep / Pillow') built on Sep 2 2012 15:37:04
Библиотека кодирования : libebml v1.2.3 + libmatroska v1.3.0
Attachment : Yes
Видео
Идентификатор : 1
Формат : AVC
Формат/Информация : Advanced Video Codec
Профиль формата : High@L4.1
Параметр CABAC формата : Да
Параметр ReFrames формата : 10 кадров
Идентификатор кодека : V_MPEG4/ISO/AVC
Продолжительность : 1 ч. 48 м.
Битрейт : 2100 Кбит/сек
Ширина : 720 пикселей
Высота : 464 пикселя
Соотношение сторон : 2,2:1
Режим частоты кадров : Постоянный
Частота кадров : 25,000 кадров/сек
Цветовое пространство : YUV
Субдискретизация насыщенности : 4:2:0
Битовая глубина : 8 бит
Тип развёртки : Прогрессивная
Бит/(Пиксели*Кадры) : 0.251
Размер потока : 1,56 Гбайт (77%)
Заголовок : Ричард Львиное Сердце / King Richard and the Crusaders (1954) DVDRip-AVC by SC Kosmos
Библиотека кодирования : x264 core 148 r2705 3f5ed56
Настройки программы : cabac=1 / ref=10 / deblock=1:0:0 / analyse=0x3:0x113 / me=umh / subme=11 / psy=1 / psy_rd=1.00:0.00 / mixed_ref=1 / me_range=32 / chroma_me=1 / trellis=2 / 8x8dct=1 / cqm=0 / deadzone=21,11 / fast_pskip=0 / chroma_qp_offset=-2 / threads=12 / lookahead_threads=3 / sliced_threads=0 / nr=0 / decimate=0 / interlaced=0 / bluray_compat=0 / constrained_intra=0 / bframes=10 / b_pyramid=2 / b_adapt=2 / b_bias=0 / direct=3 / weightb=1 / open_gop=0 / weightp=2 / keyint=250 / keyint_min=25 / scenecut=40 / intra_refresh=0 / rc_lookahead=40 / rc=2pass / mbtree=0 / bitrate=2100 / ratetol=1.0 / qcomp=0.60 / qpmin=0 / qpmax=69 / qpstep=4 / cplxblur=20.0 / qblur=0.5 / vbv_maxrate=62500 / vbv_bufsize=78125 / nal_hrd=none / filler=0 / ip_ratio=1.40 / pb_ratio=1.30 / aq=1:1.00
Язык : English
Default : Да
Forced : Нет
Аудио #1
Идентификатор : 2
Формат : AC-3
Формат/Информация : Audio Coding 3
Расширение режима : CM (complete main)
Параметр Endianness формата : Big
Идентификатор кодека : A_AC3
Продолжительность : 1 ч. 48 м.
Вид битрейта : Постоянный
Битрейт : 192 Кбит/сек
Каналы : 2 канала
Расположение каналов : Front: L R
Частота : 48,0 КГц
Битовая глубина : 16 бит
Метод сжатия : С потерями
Размер потока : 150 Мбайт (7%)
Заголовок : MVO ( ООО Светла )
Язык : Russian
Default : Да
Forced : Нет
Аудио #2
Идентификатор : 3
Формат : AC-3
Формат/Информация : Audio Coding 3
Расширение режима : CM (complete main)
Параметр Endianness формата : Big
Идентификатор кодека : A_AC3
Продолжительность : 1 ч. 48 м.
Вид битрейта : Постоянный
Битрейт : 192 Кбит/сек
Каналы : 2 канала
Расположение каналов : Front: L R
Частота : 48,0 КГц
Битовая глубина : 16 бит
Метод сжатия : С потерями
Размер потока : 150 Мбайт (7%)
Заголовок : DVO ( НТВ+ (по заказу НТВ) )
Язык : Russian
Default : Нет
Forced : Нет
Аудио #3
Идентификатор : 4
Формат : AC-3
Формат/Информация : Audio Coding 3
Расширение режима : CM (complete main)
Параметр Endianness формата : Big
Идентификатор кодека : A_AC3
Продолжительность : 1 ч. 48 м.
Вид битрейта : Постоянный
Битрейт : 192 Кбит/сек
Каналы : 2 канала
Расположение каналов : Front: L R
Частота : 48,0 КГц
Битовая глубина : 16 бит
Метод сжатия : С потерями
Размер потока : 150 Мбайт (7%)
Язык : English
Default : Нет
Forced : Нет
Меню
00:00:00.000 : en:Chapter 01
00:01:36.000 : en:Chapter 02
00:11:08.440 : en:Chapter 03
00:24:37.840 : en:Chapter 04
00:30:09.000 : en:Chapter 05
00:38:17.880 : en:Chapter 06
00:51:32.880 : en:Chapter 07
01:01:59.680 : en:Chapter 08
01:13:08.320 : en:Chapter 09
01:22:34.080 : en:Chapter 10
01:33:46.520 : en:Chapter 11
01:42:44.320 : en:Chapter 12
01:48:45.720 : en:Chapter 13
01:48:57.480 : en:Chapter 14




Русские дорожки взяты с раздачи DVD5 (Custom) от palmeiras
ЦитатаКто-то писал:
Добавлена первой русская дорожка с диска Светлы из моей коллекции.
Русская дорожка с НТВ - hedgehot
Синхронизация русских дорожек - ghoulie
За исходник был взят немецкий DVD, к которому были подогнаны русские дорожки.



   Похожие торренты   Торрент   Размер 
В этой теме нет новых непрочитанных сообщений. Ричард Львиное Сердце / King Richard and the Crusaders (1954) DVDRip-AVC | P, P2

0 | 0

1.45 ГБ

В этой теме нет новых непрочитанных сообщений. Ричард Львиное Сердце / King Richard and the Crusaders (1954) DVDRip

10 | 4

700.2 МБ

В этой теме нет новых непрочитанных сообщений. Ричард: Львиное сердце / Richard: The Lionheart (2013) DVDRip от INTERCINEMA | L1

17 | 4

1.37 ГБ

В этой теме нет новых непрочитанных сообщений. Ричард: Львиное сердце / Richard: The Lionheart (2013) DVDRip от INTERCINEMA | L1

3 | 10

705.63 МБ

В этой теме нет новых непрочитанных сообщений. Ричард: Львиное сердце / Richard: The Lionheart (2013) HDRip | L1

832 | 198

1.46 ГБ

В этой теме нет новых непрочитанных сообщений. Ричард: Львиное Сердце / Richard: The Lionheart (2013) WEB-DLRip | L1

9 | 3

1.46 ГБ

В этой теме нет новых непрочитанных сообщений. Ричард: Львиное Сердце / Richard: The Lionheart (2013) BDRip-AVC | L1

278 | 159

1.93 ГБ




Вы не можете начинать темы
Вы не можете отвечать на сообщения
Вы не можете редактировать свои сообщения
Вы не можете удалять свои сообщения
Вы не можете добавлять вложения

Перейти:  
Для Мосгорсуда, Роскомнадзора и рекламодателей: mosgorsud-torrent[собачка]yandex.ru
 Вход
ppkBB3cker v.2 © 2008-2014 @ PPK
[ Time : 0.039s | 20 Queries | GZIP : Off ]

cron