img image001 image001 image001 image001 image001 image001 image001 image001 image001 image001 image001 image001 image001 image001 image001

Planets Sun Sun Sun
Статистика раздачи
Автор: Nickolas3434 | Размер: 4.37 ГБ | Добавлен: 23 янв 2017
Раздают: 2    Качают: 1
Скачать торрент
Скачать торрент
Описание торрента

СообщениеДобавлено: 23 янв 2017 


Информация о фильме
Название: Из джунглей в джунгли
Оригинальное название: Jungle 2 Jungle
Год выхода: 1997
Жанр: комедия, приключения, семейный
Режиссер: Джон Пасквин
В ролях: Тим Аллен, Мартин Шорт, ДжоБет Уильямс, Лолита Давидович, Сэм Хантингтон, Дэвид Огден Стайерз, Боб Диши, Валери Махаффей, Лили Собески, Фрэнки Дж. Джалассо
Описание: Преуспевающий брокер Майкл Кромвель отправляется в амазонские джунгли, чтобы получить долгожданный развод. Но вместе с вожделенной свободой ему достается… тринадцатилетний сын, о существовании которого он и не подозревал.
Новоиспеченный отец привозит его в Нью-Йорк. И здесь оказывается, что мальчик, воспитанный среди аборигенов, больше разбирается в дротиках и копьях, чем в светских манерах…

Страна: США, Франция
Продолжительность: 01:44:50
Перевод #1: Профессиональный (Многоголосый, Закадровый)
Перевод #2: Английский (Оригинал)
Файл
Формат: MKV
Качество: WEBRip 720p (Источник: Jungle.2.Jungle.1997.1080p.WEBRip.DD5.1.x264-TrollHD)
Видео: 1280x720 (16:9), 23.976 fps, 5328 kbps, 0.241 bit/pixel
Аудио #1: AC-3, 2 ch, 192 kbps (Многоголосый)
Аудио #2: AC-3, 6 ch, 448 kbps (Английский Оригинал)
Субтитры: Английские
General
Unique ID : 237105906150737850750168930462593952032 (0xB260EFBC262C071192FC1A6ADDDFA920)
Complete name : Jungle.2.Jungle.1997.WEBRip.AVC.720p.P.mkv
Format : Matroska
Format version : Version 2
File size : 4.37 GiB
Duration : 1h 44mn
Overall bit rate mode : Variable
Overall bit rate : 5 970 Kbps
Encoded date : UTC 2017-01-23 09:11:58
Writing application : mkvmerge v5.6.0 ('Kenya Kane') built on May 27 2012 16:44:04
Writing library : libebml v1.2.3 + libmatroska v1.3.0
Video
ID : 1
Format : AVC
Format/Info : Advanced Video Codec
Format profile : High@L3.1
Format settings, CABAC : Yes
Format settings, ReFrames : 4 frames
Codec ID : V_MPEG4/ISO/AVC
Duration : 1h 44mn
Bit rate mode : Variable
Bit rate : 5 328 Kbps
Maximum bit rate : 40.0 Mbps
Width : 1 280 pixels
Height : 720 pixels
Display aspect ratio : 16:9
Frame rate mode : Constant
Frame rate : 23.976 fps
Color space : YUV
Chroma subsampling : 4:2:0
Bit depth : 8 bits
Scan type : Progressive
Bits/(Pixel*Frame) : 0.241
Stream size : 3.82 GiB (87%)
Writing library : x264 core 142 r2479 dd79a61
Encoding settings : cabac=1 / ref=4 / deblock=1:0:0 / analyse=0x3:0x113 / me=umh / subme=9 / psy=1 / psy_rd=1.00:0.00 / mixed_ref=1 / me_range=16 / chroma_me=1 / trellis=1 / 8x8dct=1 / cqm=0 / deadzone=21,11 / fast_pskip=1 / chroma_qp_offset=-2 / threads=6 / lookahead_threads=1 / sliced_threads=0 / nr=0 / decimate=1 / interlaced=0 / bluray_compat=0 / constrained_intra=0 / bframes=3 / b_pyramid=2 / b_adapt=1 / b_bias=0 / direct=1 / weightb=1 / open_gop=0 / weightp=2 / keyint=240 / keyint_min=24 / scenecut=40 / intra_refresh=0 / rc_lookahead=40 / rc=2pass / mbtree=1 / bitrate=5328 / ratetol=1.0 / qcomp=0.60 / qpmin=0 / qpmax=69 / qpstep=4 / cplxblur=20.0 / qblur=0.5 / ip_ratio=1.40 / aq=1:1.0
Language : English
Default : Yes
Forced : No
Color primaries : BT.709
Transfer characteristics : BT.709
Matrix coefficients : BT.709
Color range : Limited
Audio #1
ID : 2
Format : AC-3
Format/Info : Audio Coding 3
Mode extension : CM (complete main)
Format settings, Endianness : Big
Codec ID : A_AC3
Duration : 1h 44mn
Bit rate mode : Constant
Bit rate : 192 Kbps
Channel(s) : 2 channels
Channel positions : Front: L R
Sampling rate : 48.0 KHz
Bit depth : 16 bits
Compression mode : Lossy
Stream size : 144 MiB (3%)
Title : Многоголосый 2.0
Language : Russian
Default : Yes
Forced : No
Audio #2
ID : 3
Format : AC-3
Format/Info : Audio Coding 3
Mode extension : CM (complete main)
Format settings, Endianness : Big
Codec ID : A_AC3
Duration : 1h 44mn
Bit rate mode : Constant
Bit rate : 448 Kbps
Channel(s) : 6 channels
Channel positions : Front: L C R, Side: L R, LFE
Sampling rate : 48.0 KHz
Bit depth : 16 bits
Compression mode : Lossy
Stream size : 336 MiB (8%)
Title : Английский 5.1 (Оригинал)
Language : English
Default : No
Forced : No
Text
ID : 4
Format : UTF-8
Codec ID : S_TEXT/UTF8
Codec ID/Info : UTF-8 Plain Text
Title : ENG
Language : English
Default : No
Forced : No



   Похожие торренты   Торрент   Размер 
В этой теме нет новых непрочитанных сообщений. Из джунглей в джунгли / Jungle 2 Jungle (1997) WEB-DLRip от Koenig | P

14 | 1

1.45 ГБ

В этой теме нет новых непрочитанных сообщений. Из джунглей в джунгли / Jungle 2 Jungle (1997) DVDRip от Киномагия

18 | 1

1.37 ГБ

В этой теме нет новых непрочитанных сообщений. Джордж из джунглей / George of the Jungle (1997) Web-DL 720p | P

127 | 27

2.75 ГБ

В этой теме нет новых непрочитанных сообщений. Тарзун, позор джунглей / Tarzoon, la honte de la jungle / Tarzoon: Shame of the Jungle (1975) DVD5 | A | Custom

4 | 30

4.05 ГБ

В этой теме нет новых непрочитанных сообщений. Джордж из джунглей / George of the Jungle (1997) DVDRip

227 | 16

1.37 ГБ

В этой теме нет новых непрочитанных сообщений. Джордж из джунглей / George of the Jungle (1997) DVDRip | P

64 | 8

2.05 ГБ

В этой теме нет новых непрочитанных сообщений. Джордж из джунглей / George of the Jungle (1997) HDRip от Scarabey | P

26 | 4

747.57 МБ




Вы не можете начинать темы
Вы не можете отвечать на сообщения
Вы не можете редактировать свои сообщения
Вы не можете удалять свои сообщения
Вы не можете добавлять вложения

Перейти:  
Для Мосгорсуда, Роскомнадзора и рекламодателей: mosgorsud-torrent[собачка]yandex.ru
 Вход
ppkBB3cker v.2 © 2008-2014 @ PPK
[ Time : 2.608s | 18 Queries | GZIP : Off ]

cron