img image001 image001 image001 image001 image001 image001 image001 image001 image001 image001 image001 image001 image001 image001 image001

Planets Sun Sun Sun

COVID-19 - Последняя информация о коронавирусе на сайте Минздрава


Статистика раздачи
Автор: PriZraK | Размер: 6.85 ГБ | Добавлен: 02 фев 2017
Раздают: 0    Качают: 0
Скачать торрент
Скачать торрент
Описание торрента

СообщениеДобавлено: 02 фев 2017 


Информация о фильме
Название: Из-под земли
Оригинальное название: Unearthed
Год выхода: 2007
Жанр: ужасы, триллер
Режиссер: Мэттью Льютуайлер
В ролях: Люк Госс, Дебора Оффнер, Марк Келли, Рассел Минс, Тонанцин Кармело, Чарльз Мёрфи, Эммануэль Вожье, М. К. Гейни, Крис Эндрю Кулла


О фильме:
Во время раскопок в Нью-Мехико археологи пробуждают ото сна отвратительное чудовище. Эта инопланетная тварь пролежала там почти тысячу лет! Разъяренный монстр уничтожает все живое, что попадется на его пути.
Местная женщина-шериф, в последнее время часто злоупотребляет алкоголем. Поэтому ей хватает и своих демонов! Но именно ей выпала участь возглавить отряд бойцов, которые пытаются уничтожить это исчадие ада.



Страна: США
Студия: Ambush Entertainment, Cold Iron Pictures, Combustion Studios
Продолжительность: 01:33:44
Перевод: Профессиональный многоголосный, закадровый
Файл
Кодек: H.264
Качество: BDRip 1080p
Видео: High@L4.1; 1920x800; 9375 Кбит/сек; 24,000 кадра/сек; 0.254
Звук:
#1. AC3; 48,0 КГц; 448 Кбит/сек; 6 каналов; Front: L C R, Side: L R, LFE | MVO
#2. AC3; 48,0 КГц; 640 Кбит/сек; 6 каналов; Front: L C R, Side: L R, LFE | English
Семпл
Общее
Уникальный идентификатор : 174313325109641964788823552762839967934 (0x83238677025CB34EAF68C665962E28BE)
Полное имя : D:Фильмы____Unearthed.(2007).1080p.BluRay.x264.mkv
Формат : Matroska
Версия формата : Version 4 / Version 2
Размер файла : 6,85 Гбайт
Продолжительность : 1 ч. 33 м.
Общий поток : 10,5 Мбит/сек
Дата кодирования : UTC 2017-02-02 12:52:18
Программа кодирования : mkvmerge v9.5.0 ('Quiet Fire') 64bit
Библиотека кодирования : libebml v1.3.4 + libmatroska v1.4.5
Видео
Идентификатор : 1
Формат : AVC
Формат/Информация : Advanced Video Codec
Профиль формата : High@L4.1
Параметр CABAC формата : Да
Параметр ReFrames формата : 5 кадров
Идентификатор кодека : V_MPEG4/ISO/AVC
Продолжительность : 1 ч. 33 м.
Битрейт : 9375 Кбит/сек
Ширина : 1920 пикселей
Высота : 800 пикселей
Соотношение сторон : 2,40:1
Режим частоты кадров : Постоянный
Частота кадров : 24,000 кадра/сек
Цветовое пространство : YUV
Субдискретизация насыщенности : 4:2:0
Битовая глубина : 8 бит
Тип развёртки : Прогрессивная
Бит/(Пиксели*Кадры) : 0.254
Размер потока : 6,14 Гбайт (90%)
Библиотека кодирования : x264 core 107 r1745 4785e8e
Настройки программы : cabac=1 / ref=5 / deblock=1:0:0 / analyse=0x3:0x133 / me=umh / subme=8 / psy=1 / psy_rd=1.00:0.00 / mixed_ref=1 / me_range=16 / chroma_me=1 / trellis=1 / 8x8dct=1 / cqm=0 / deadzone=21,11 / fast_pskip=0 / chroma_qp_offset=-2 / threads=6 / sliced_threads=0 / nr=0 / decimate=1 / interlaced=0 / constrained_intra=0 / bframes=3 / b_pyramid=2 / b_adapt=1 / b_bias=0 / direct=1 / weightb=1 / open_gop=0 / weightp=2 / keyint=240 / keyint_min=24 / scenecut=40 / intra_refresh=0 / rc_lookahead=40 / rc=2pass / mbtree=1 / bitrate=9375 / ratetol=1.0 / qcomp=0.60 / qpmin=10 / qpmax=51 / qpstep=4 / cplxblur=20.0 / qblur=0.5 / ip_ratio=1.40 / aq=1:1.00
Язык : English
Default : Нет
Forced : Нет
Аудио #1
Идентификатор : 2
Формат : AC-3
Формат/Информация : Audio Coding 3
Расширение режима : CM (complete main)
Параметр Endianness формата : Big
Идентификатор кодека : A_AC3
Продолжительность : 1 ч. 33 м.
Вид битрейта : Постоянный
Битрейт : 448 Кбит/сек
Каналы : 6 каналов
Расположение каналов : Front: L C R, Side: L R, LFE
Частота : 48,0 КГц
Частота кадров : 31,250 кадров/сек (1536 spf)
Битовая глубина : 16 бит
Метод сжатия : С потерями
Размер потока : 300 Мбайт (4%)
Заголовок : MVO
Язык : Russian
Default : Да
Forced : Нет
Аудио #2
Идентификатор : 3
Формат : AC-3
Формат/Информация : Audio Coding 3
Расширение режима : CM (complete main)
Параметр Endianness формата : Big
Идентификатор кодека : A_AC3
Продолжительность : 1 ч. 33 м.
Вид битрейта : Постоянный
Битрейт : 640 Кбит/сек
Каналы : 6 каналов
Расположение каналов : Front: L C R, Side: L R, LFE
Частота : 48,0 КГц
Частота кадров : 31,250 кадров/сек (1536 spf)
Битовая глубина : 16 бит
Метод сжатия : С потерями
Размер потока : 429 Мбайт (6%)
Заголовок : Englisch
Язык : English
Default : Нет
Forced : Нет


   Похожие торренты   Торрент   Размер 
В этой теме нет новых непрочитанных сообщений. Из-под земли / Unearthed (2007) BDRip 720p | P

1 | 2

4.66 ГБ

В этой теме нет новых непрочитанных сообщений. Из-под земли / Unearthed (2007) HDRip-AVC | P

0 | 0

744.37 МБ

В этой теме нет новых непрочитанных сообщений. Из-под земли / Unearthed (2007) HDRip от Portablius | P

3 | 3

697.53 МБ

В этой теме нет новых непрочитанных сообщений. Мёртвые земли / The Dead Lands (2014) BDRip 1080p от NovaLan

83 | 17

10.49 ГБ

В этой теме нет новых непрочитанных сообщений. Соль Земли / The Salt of the Earth (2014) BDRip 1080p | iTunes

276 | 32

11.46 ГБ

В этой теме нет новых непрочитанных сообщений. Воины неба и земли / Tian di ying xiong (2003) BDRip 1080p | Р2

8 | 0

8.48 ГБ

В этой теме нет новых непрочитанных сообщений. Дрожь земли 5: Кровное родство / Tremors 5: Bloodlines (2015) BDRip 1080p | D, L

29 | 2

8.14 ГБ




Вы не можете начинать темы
Вы не можете отвечать на сообщения
Вы не можете редактировать свои сообщения
Вы не можете удалять свои сообщения
Вы не можете добавлять вложения

Перейти:  
Контактная информация: rstracker[пёсик]yandex.ru
 Вход
ppkBB3cker v.2 © 2008-2014 @ PPK
[ Time : 0.030s | 15 Queries | GZIP : Off ]

cron