img image001 image001 image001 image001 image001 image001 image001 image001 image001 image001 image001 image001 image001 image001 image001

Planets Sun Sun Sun
Статистика раздачи
Автор: Снежана | Размер: 1.44 ГБ | Добавлен: 19 июл 2013
Раздают: 22    Качают: 5
Скачать торрент
Скачать торрент
Описание торрента

СообщениеДобавлено: 19 июл 2013 

В.Р. Мистерия организма / W.R. - Misterije organizma /1971/ DVDRip / AVC



Внимание! Лицам до 17 лет просмотр строго запрещен.

Информация о фильме:

Yugoslavia
Interview
Psychology
Gay Interest
Risque
Surrealism
Satire
Sex Therapy
Experimental Film
Spontaneous Orgasm
Fascism
Communist
Free Love
Josef Stalin
Female Frontal Nudity
Female Nudity
Title From Sex Manual
Feminism
Orgasm
Communism
Socialist
1960s
Male Frontal Nudity
Psychoanalysis
Ice Skater
Fellatio
Controversy
Plaster
Morality
Erection
Severed Head
Counter Culture
Sex Therapist
Hand Job
Sex
Based On Book


Название: В.Р. Мистерия организма
Оригинальное название: W.R. - Misterije organizma / W.R.: Mysteries of the Organism
Год выхода: 1971
Жанр: Фэнтези, Черная комедия, Драма, Артхаус

Режиссер: Душан Макавеев /Dusan Makavejev/
В ролях: Милена Дравич /Milena Dravic/ Ивица Видович /Ivica Vidovic/ Ягода Калопер /Jagoda Kaloper/ Тули Купферберг /Tuli Kupferberg/ Зоран Радмилович /Zoran Radmilovic/ Джеки Кертис /Jackie Curtis/...

Описание: Самый провакационный фильм югославского скандалиста Макавеева. Эта комедия построена на параллельном монтаже двух сюжетных линий: первая рассказывает о сексуальных теориях доктора Вильгельма Райха, эмигрировавшего в Америку из Австрии, но, в конце концов, осужденного за оскорбление общественной нравственности вторая, действие которой происходит в Югославии, в ироническом тоне соединяет документальную хронику сталинской эпохи с рассказом о страсти, вспыхивающей между свободомыслящей югославкой и закомплексованным солистом советского балета на льду.

Страна:
Выпущено: Neoplanta Film
Продолжительность: 01:24:27
Перевод: Любительский одноголосый /закадровый/
Субтитры: Английские

Качество: DVDRip AVC
Видео: MPEG4 Video (H264) 720x480 (4:3) 23.98fps
Аудио 1: Dolby AC3, 48000Hz, 192 Kbps, 1 channel /English/
Аудио 2: Dolby AC3, 48000Hz, 192 Kbps, 2 channels /Russian/

Скачать сэмп 1 / 00:02:19 / 41MB
Скачать сэмп 2 / 00:01:28 / 24MB

General
W.R. - Misterije organizma (1971).mkv
Format : Matroska
File size : 1.44 GiB
Duration : 1h 24mn
Overall bit rate : 2 442 Kbps
Encoded date : UTC 2009-12-09 18:44:42
Writing application : mkvmerge v2.4.1 ('Use Me') built on Dec 5 2008 15:43:32
Writing library : libebml v0.7.7 + libmatroska v0.8.1

Video
ID : 1
Format : AVC
Format/Info : Advanced Video Codec
Format profile : Main@L4.0
Format settings, CABAC : Yes
Format settings, ReFrames : 2 frames
Muxing mode : Container profile=Unknown@4.0
Codec ID : V_MPEG4/ISO/AVC
Duration : 1h 24mn
Bit rate : 2 009 Kbps
Nominal bit rate : 2 059 Kbps
Width : 720 pixels
Height : 480 pixels
Display aspect ratio : 4:3
Original display aspect ratio : 1.500
Frame rate : 23.976 fps
Standard : NTSC
Resolution : 24 bits
Colorimetry : 4:2:0
Scan type : Progressive
Bits/(Pixel*Frame) : 0.243
Stream size : 1.18 GiB (82%)
Title : W_R_ - Misterije organizma (1971)
Writing library : x264 core 66 r1092 60f4cd8
Encoding settings : cabac=1 / ref=1 / deblock=0:0:0 / analyse=0x1:0x111 / me=dia / subme=2 / psy_rd=0.0:0.0 / mixed_ref=0 / me_range=8 / chroma_me=0 / trellis=0 / 8x8dct=0 / cqm=0 / deadzone=21,11 / chroma_qp_offset=0 / threads=3 / nr=0 / decimate=1 / mbaff=0 / bframes=2 / b_pyramid=0 / b_adapt=0 / b_bias=0 / direct=1 / wpredb=0 / keyint=250 / keyint_min=25 / scenecut=40(pre) / rc=cbr / bitrate=2059 / ratetol=1.0 / qcomp=0.60 / qpmin=10 / qpmax=51 / qpstep=4 / vbv_maxrate=25000 / vbv_bufsize=14000 / ip_ratio=1.40 / pb_ratio=1.30 / aq=1:1.00

Audio #1
ID : 2
Format : AC-3
Format/Info : Audio Coding 3
Codec ID : A_AC3
Duration : 1h 24mn
Bit rate mode : Constant
Bit rate : 192 Kbps
Channel(s) : 1 channel
Channel positions : C
Sampling rate : 48.0 KHz
Stream size : 116 MiB (8%)
Language : English

Audio #2
ID : 3
Format : AC-3
Format/Info : Audio Coding 3
Codec ID : A_AC3
Duration : 1h 24mn
Bit rate mode : Constant
Bit rate : 192 Kbps
Channel(s) : 2 channels
Channel positions : L R
Sampling rate : 48.0 KHz
Stream size : 116 MiB (8%)
Language : Russian

Text #1
ID : 4
Format : VobSub
Codec ID : S_VOBSUB
Codec ID/Info : The same subtitle format used on DVDs
Language : English

Text #2
ID : 5
Format : VobSub
Codec ID : S_VOBSUB
Codec ID/Info : The same subtitle format used on DVDs
Language : English

Text #3
ID : 6
Format : VobSub
Codec ID : S_VOBSUB
Codec ID/Info : The same subtitle format used on DVDs
Language : English
















   Похожие торренты   Торрент   Размер 
В этой теме нет новых непрочитанных сообщений. Мистерия: одурманенные мультфильмы / Stoned cartoons: Mysteria (2007) DVDRip

3 | 2

1.41 ГБ

В этой теме нет новых непрочитанных сообщений. Тайна: Мистерия продолжается / Raaz: The Mystery Continues (2009) DVDRip

3 | 5

1.37 ГБ

В этой теме нет новых непрочитанных сообщений. Тотальное очищение организма. Тренинг (2015) PCRec

20 | 0

4.39 ГБ

В этой теме нет новых непрочитанных сообщений. Рождественская мистерия (2000) SATRip

254 | 6

1.95 ГБ

В этой теме нет новых непрочитанных сообщений. Discovery: Механизмы организма / The Body Machine (2008) HDTVRip-AVC от -=HD-NET=-

27 | 3

1.29 ГБ

В этой теме нет новых непрочитанных сообщений. Елена Жукова - Чистки организма. Лучшие методики (2012) PDF

49 | 4

5.05 МБ

В этой теме нет новых непрочитанных сообщений. Поэтический сборник - Русская мистерия (2012) MP3

1 | 1

106.98 МБ




Вы не можете начинать темы
Вы не можете отвечать на сообщения
Вы не можете редактировать свои сообщения
Вы не можете удалять свои сообщения
Вы не можете добавлять вложения

Перейти:  
Для Мосгорсуда, Роскомнадзора и рекламодателей: mosgorsud-torrent[собачка]yandex.ru
 Вход
ppkBB3cker v.2 © 2008-2014 @ PPK
[ Time : 0.047s | 16 Queries | GZIP : Off ]

Торрент трекер RUTOR.IN, Не можете зайти на rutor.org? Какой новый адрес рутор? Какое зеркало рутор? Не работает rutor.org и зеркала? Тогда наш торрент специально для вас. Rutor.in неофициальное зеркало rutor. В случае если у Вас заблокирован rutor или вдруг Вы не можете на него зайти, то Вы без труда сможете скачать бесплатно и без рекламы последние новинки кино, игр, сериалов и прочего у нас, на Rutor.in. Не нужно использовать прокси, чтобы зайти на рутор, достаточно воспользоваться нашим ресурсом. Все новые фильмы, игры, сериалы, книги и музыка за 2013 и 2014 годы через торрент бесплатно. Скачивайте фильмы в хорошем качестве, игры для пк, xbox, playstation без регистрации. У нас вы найдете новые Зарубежные сериалы и Русские сериалы 2013, 2014, 2015 годов. Оставайтесь с нами, качайте любимые фильмы, игры, сериалы, книги и музыку.
cron