img image001 image001 image001 image001 image001 image001 image001 image001 image001 image001 image001 image001 image001 image001 image001

Planets Sun Sun Sun
Статистика раздачи
Автор: PriZraK | Размер: 3.79 ГБ | Добавлен: 05 фев 2017
Раздают: 1    Качают: 0
Скачать торрент
Скачать торрент
Описание торрента

СообщениеДобавлено: 05 фев 2017 


Информация о фильме
Название: С глазу на глаз
Оригинальное название: A tu per tu
Год выхода: 1984
Жанр: Комедия
Режиссер: Серджо Корбуччи
В ролях: Джонни Дорелли, Паоло Вилладжо, Адриано Паппалардо, Мариса Лаурито, Франко Рессель, Лучио Розато, Джулиана Каландра, Виктория Дзинни, Сальваторе Боргезе
О фильме:
Трудна и непредсказуема жизнь главного героя фильма таксиста Джино Шакалуга. Его донимает сварливая жена, на работе одни неприятности. И вот однажды в его такси садится обанкротившийся финансист Эмануэле Сансони, которого преследуют агенты финансовой полиции. Тут то и начинается череда курьёзов и случайностей, происходящих с главными героями этой искромётной комедии.

Страна: Италия
Студия: Adige Films s.r.l.
Продолжительность: 01:42:50
Перевод: Профессиональный двухголосый, авторский
Файл
Кодек: h.264
Качество: DVDRip
Видео: MPEG-4 AVC, 720x432, 4500 Кбит/с, 25.000 кадр/с
Звук:
Аудио #1: Русский ( AC3, 2ch, 256 Кбит/с, 48.0 KHz) Профессиональный двухголосый (закадровый)
Аудио #2: Русский ( AC3, 2ch, 256 Кбит/с, 48.0 KHz) Авторский одноголосый (Владимир Штейн)
Аудио #3: Итальянский ( AC3, 2ch, 256 Кбит/с, 48.0 KHz)
Семпл

General
Unique ID : 240483704662510962054472375172032116936 (0xB4EB7A0F372D370FAC3DC81FEC0838C8)
Complete name : A.Tu.Per.Tu.1984.DVDRip-AVC.mkv
Format : Matroska
Format version : Version 4 / Version 2
File size : 3.79 GiB
Duration : 1 h 42 min
Overall bit rate : 5 271 kb/s
Encoded date : UTC 2017-02-05 09:19:10
Writing application : mkvmerge v7.8.0 ('River Man') 64bit built on Mar 27 2015 16:31:37
Writing library : libebml v1.3.1 + libmatroska v1.4.2
Cover : Yes
Attachments : cover.jpg
Video
ID : 1
Format : AVC
Format/Info : Advanced Video Codec
Format profile : High@L4.1
Format settings, CABAC : Yes
Format settings, ReFrames : 12 frames
Codec ID : V_MPEG4/ISO/AVC
Duration : 1 h 42 min
Bit rate : 4 500 kb/s
Width : 720 pixels
Height : 432 pixels
Display aspect ratio : 5:3
Frame rate mode : Constant
Frame rate : 25.000 FPS
Color space : YUV
Chroma subsampling : 4:2:0
Bit depth : 8 bits
Scan type : Progressive
Bits/(Pixel*Frame) : 0.579
Stream size : 3.23 GiB (85%)
Title : Video
Writing library : x264 core 146 r2538 121396c
Encoding settings : cabac=1 / ref=12 / deblock=1:-3:-3 / analyse=0x3:0x113 / me=umh / subme=11 / psy=1 / psy_rd=1.00:0.00 / mixed_ref=1 / me_range=32 / chroma_me=1 / trellis=2 / 8x8dct=1 / cqm=0 / deadzone=21,11 / fast_pskip=1 / chroma_qp_offset=-2 / threads=6 / lookahead_threads=1 / sliced_threads=0 / nr=0 / decimate=1 / interlaced=0 / bluray_compat=0 / constrained_intra=0 / bframes=12 / b_pyramid=2 / b_adapt=2 / b_bias=0 / direct=3 / weightb=1 / open_gop=0 / weightp=2 / keyint=250 / keyint_min=23 / scenecut=40 / intra_refresh=0 / rc_lookahead=70 / rc=2pass / mbtree=1 / bitrate=4500 / ratetol=1.0 / qcomp=0.60 / qpmin=0 / qpmax=69 / qpstep=4 / cplxblur=20.0 / qblur=0.5 / ip_ratio=1.40 / aq=1:1.00
Language : Italian
Default : Yes
Forced : No
Audio #1
ID : 2
Format : AC-3
Format/Info : Audio Coding 3
Mode extension : CM (complete main)
Format settings, Endianness : Big
Codec ID : A_AC3
Duration : 1 h 42 min
Bit rate mode : Constant
Bit rate : 256 kb/s
Channel(s) : 2 channels
Channel positions : Front: L R
Sampling rate : 48.0 kHz
Frame rate : 31.250 FPS (1536 spf)
Bit depth : 16 bits
Compression mode : Lossy
Stream size : 188 MiB (5%)
Title : Профессиональный двухголосый (закадровый)
Language : Russian
Default : Yes
Forced : No
Audio #2
ID : 3
Format : AC-3
Format/Info : Audio Coding 3
Mode extension : CM (complete main)
Format settings, Endianness : Big
Codec ID : A_AC3
Duration : 1 h 42 min
Bit rate mode : Constant
Bit rate : 256 kb/s
Channel(s) : 2 channels
Channel positions : Front: L R
Sampling rate : 48.0 kHz
Frame rate : 31.250 FPS (1536 spf)
Bit depth : 16 bits
Compression mode : Lossy
Stream size : 188 MiB (5%)
Title : Авторский одноголосый (Владимир Штейн)
Language : Russian
Default : No
Forced : No
Audio #3
ID : 4
Format : AC-3
Format/Info : Audio Coding 3
Mode extension : CM (complete main)
Format settings, Endianness : Big
Codec ID : A_AC3
Duration : 1 h 42 min
Bit rate mode : Constant
Bit rate : 256 kb/s
Channel(s) : 2 channels
Channel positions : Front: L R
Sampling rate : 48.0 kHz
Frame rate : 31.250 FPS (1536 spf)
Bit depth : 16 bits
Compression mode : Lossy
Stream size : 188 MiB (5%)
Language : Italian
Default : No
Forced : No

   Похожие торренты   Торрент   Размер 
В этой теме нет новых непрочитанных сообщений. Стилет (1-2 сезоны 1-22 серии из 22) (Николай Досталь, Михаил Туманишвили) [2003-2004, боевик, криминал, DVDRip-AVC, WEBRip-AVC]

13 | 0

15.01 ГБ

В этой теме нет новых непрочитанных сообщений. Блики в золотом глазу / Reflections in a Golden Eye (1967) DVDRip | P, A

38 | 7

1.47 ГБ

В этой теме нет новых непрочитанных сообщений. Шпион у тебя в глазу / Berlino - Appuntamento per le spie (1965) DVDRip от ExKinoRay | L1

22 | 2

1.37 ГБ

В этой теме нет новых непрочитанных сообщений. Государственная защита (1-3 сезоны 1-40 серии из 40) (Александр Устюгов, Алан Дзоциев) [2010-2013, детектив, криминал, WEBRip-AVC, HDTVRip-AVC]

7 | 2

23.87 ГБ

В этой теме нет новых непрочитанных сообщений. Блики в золотом глазу / Reflections in a Golden Eye (1967) BDRip 1080p | P, A

0 | 0

9.81 ГБ

В этой теме нет новых непрочитанных сообщений. Блики в золотом глазу / Reflections in a Golden Eye (1967) BDRemux 1080p | P, A

0 | 4

24.7 ГБ

В этой теме нет новых непрочитанных сообщений. Глаз бога / Eye of God (1997) DVDRip

78 | 1

1.36 ГБ




Вы не можете начинать темы
Вы не можете отвечать на сообщения
Вы не можете редактировать свои сообщения
Вы не можете удалять свои сообщения
Вы не можете добавлять вложения

Перейти:  
 Вход
ppkBB3cker v.2 © 2008-2014 @ PPK
[ Time : 0.059s | 18 Queries | GZIP : Off ]

cron