img image001 image001 image001 image001 image001 image001 image001 image001 image001 image001 image001 image001 image001 image001 image001

Planets Sun Sun Sun

COVID-19 - Последняя информация о коронавирусе на сайте Минздрава


Статистика раздачи
Автор: PriZraK | Размер: 9.63 ГБ | Добавлен: 07 фев 2017
Раздают: 2    Качают: 1
Скачать торрент
Скачать торрент
Описание торрента

СообщениеДобавлено: 07 фев 2017 

Кинг-Конг

King Kong

«The most exciting original motion picture event of all time»



Страна: США
Жанр: ужасы, фэнтези, приключения
Год выпуска: 1976
Продолжительность: 02:14:50
Перевод: Профессиональный (многоголосый, закадровый), Профессиональный (двухголосый, закадровый), Авторский
Субтитры: русские, английские.


Режиссер: Джон Гиллермин / John Guillermin


В ролях: Джефф Бриджес (Jack Prescott), Чарльз Гродин (Fred Wilson), Джессика Лэнг (Dwan), Джон Рэндольф (Captain Ross), Рене Обержонуа (Bagley), Джулиус Харрис (Boan), Джек О’Хэллоран (Joe Perko), Деннис Фимпл (Sunfish), Эд Лотер (Carnahan), Хорхе Морено (Garcia), Марио Галло (Timmons), Джон Лоун (Chinese Cook)


Описание: Нефтеразведочная экспедиция компании «Petrox», к которой хитростью присоединился палеонтолог и защитник природы Джек Прескотт, отправляется на малоизученный тихоокеанский остров. По пути экспедиция спасает потерпевшую кораблекрушение голливудскую звезду Дуэн. На острове нефтяники сталкиваются с гигантской гориллой, которую местные жители называют Конг. Обезьяна похищает Дуан, но Прескотту удается её освободить. Руководитель экспедиции решает, что раз уж нефти на острове найти не удалось, то можно вывезти с него хотя бы обезьяну и заработать, показывая её нью-йоркской публике. Однако во время первого же представления Конг освобождается и начинает крушить все на своём пути...



MPAA: PG - Рекомендуется присутствие родителей


Семпл


Релиз от:


Качество: BDRip
Контейнер: MKV
Видео: AVC, 1280x544 (2.35:1), 8746 kbps, 23,976 fps, 0,524 bpp
Аудио №1: русский / AC3 / 5.1 / 48 kHz / 448 kbps / MVO ( Амальгама )
Аудио №2: русский / AC3 / 2.0 / 48 kHz / 192 kbps / DVO ( НТВ+ )
Аудио №3: русский / AC3 / 2.0 / 48 kHz / 192 kbps / AVO ( Сербин )
Аудио №4: русский / AC3 / 2.0 / 48 kHz / 192 kbps / AVO ( Либергал )
Аудио №5: английский / AC3 / 5.1 / 48 kHz / 448 kbps
Навигация по главам: есть


Формат : Matroska
Версия формата : Version 2
Размер файла : 9,63 Гбайт
Продолжительность : 2 ч. 14 м.
Общий поток : 10,2 Мбит/сек
Название фильма : = Кинг Конг / King Kong (1976) BDRip 720p =
Дата кодирования : UTC 2017-02-06 17:13:22
Программа кодирования : mkvmerge v5.8.0 ('No Sleep / Pillow') built on Sep 2 2012 15:37:04
Библиотека кодирования : libebml v1.2.3 + libmatroska v1.3.0
Attachment : Yes
Видео
Идентификатор : 1
Формат : AVC
Формат/Информация : Advanced Video Codec
Профиль формата : High@L4.1
Параметр CABAC формата : Да
Параметр ReFrames формата : 12 кадров
Идентификатор кодека : V_MPEG4/ISO/AVC
Продолжительность : 2 ч. 14 м.
Битрейт : 8746 Кбит/сек
Ширина : 1280 пикселей
Высота : 544 пикселя
Соотношение сторон : 2,35:1
Режим частоты кадров : Постоянный
Частота кадров : 23,976 кадра/сек
Цветовое пространство : YUV
Субдискретизация насыщенности : 4:2:0
Битовая глубина : 8 бит
Тип развёртки : Прогрессивная
Бит/(Пиксели*Кадры) : 0.524
Размер потока : 8,05 Гбайт (84%)
Заголовок : Кинг Конг / King Kong (1976) BDRip 720p
Библиотека кодирования : x264 core 148 r2705 3f5ed56
Настройки программы : cabac=1 / ref=12 / deblock=1:-3:-3 / analyse=0x3:0x113 / me=umh / subme=11 / psy=1 / psy_rd=1.00:0.00 / mixed_ref=1 / me_range=48 / chroma_me=1 / trellis=2 / 8x8dct=1 / cqm=0 / deadzone=21,11 / fast_pskip=0 / chroma_qp_offset=-2 / threads=12 / lookahead_threads=3 / sliced_threads=0 / nr=0 / decimate=0 / interlaced=0 / bluray_compat=0 / constrained_intra=0 / bframes=12 / b_pyramid=2 / b_adapt=2 / b_bias=0 / direct=3 / weightb=1 / open_gop=0 / weightp=2 / keyint=250 / keyint_min=23 / scenecut=40 / intra_refresh=0 / rc=2pass / mbtree=0 / bitrate=8746 / ratetol=1.0 / qcomp=0.60 / qpmin=0 / qpmax=69 / qpstep=4 / cplxblur=20.0 / qblur=0.5 / ip_ratio=1.40 / pb_ratio=1.30 / aq=3:0.80
Язык : English
Default : Да
Forced : Нет
Основные цвета : BT.709
Характеристики трансфера : BT.709
Коэффициенты матрицы : BT.709
Аудио #1
Идентификатор : 2
Формат : AC-3
Формат/Информация : Audio Coding 3
Расширение режима : CM (complete main)
Параметр Endianness формата : Big
Идентификатор кодека : A_AC3
Продолжительность : 2 ч. 14 м.
Вид битрейта : Постоянный
Битрейт : 448 Кбит/сек
Каналы : 6 каналов
Расположение каналов : Front: L C R, Side: L R, LFE
Частота : 48,0 КГц
Битовая глубина : 16 бит
Метод сжатия : С потерями
Размер потока : 432 Мбайт (4%)
Заголовок : MVO ( Амальгама )
Язык : Russian
Default : Да
Forced : Нет
Аудио #2
Идентификатор : 3
Формат : AC-3
Формат/Информация : Audio Coding 3
Расширение режима : CM (complete main)
Параметр Endianness формата : Big
Идентификатор кодека : A_AC3
Продолжительность : 2 ч. 14 м.
Вид битрейта : Постоянный
Битрейт : 192 Кбит/сек
Каналы : 2 канала
Расположение каналов : Front: L R
Частота : 48,0 КГц
Битовая глубина : 16 бит
Метод сжатия : С потерями
Размер потока : 185 Мбайт (2%)
Заголовок : DVO ( НТВ+ )
Язык : Russian
Default : Нет
Forced : Нет
Аудио #3
Идентификатор : 4
Формат : AC-3
Формат/Информация : Audio Coding 3
Расширение режима : CM (complete main)
Параметр Endianness формата : Big
Идентификатор кодека : A_AC3
Продолжительность : 2 ч. 14 м.
Вид битрейта : Постоянный
Битрейт : 192 Кбит/сек
Каналы : 2 канала
Расположение каналов : Front: L R
Частота : 48,0 КГц
Битовая глубина : 16 бит
Метод сжатия : С потерями
Размер потока : 185 Мбайт (2%)
Заголовок : AVO ( Сербин )
Язык : Russian
Default : Нет
Forced : Нет
Аудио #4
Идентификатор : 5
Формат : AC-3
Формат/Информация : Audio Coding 3
Расширение режима : CM (complete main)
Параметр Endianness формата : Big
Идентификатор кодека : A_AC3
Продолжительность : 2 ч. 14 м.
Вид битрейта : Постоянный
Битрейт : 192 Кбит/сек
Каналы : 2 канала
Расположение каналов : Front: L R
Частота : 48,0 КГц
Битовая глубина : 16 бит
Метод сжатия : С потерями
Размер потока : 185 Мбайт (2%)
Заголовок : AVO ( Либергал )
Язык : Russian
Default : Нет
Forced : Нет
Аудио #5
Идентификатор : 6
Формат : AC-3
Формат/Информация : Audio Coding 3
Расширение режима : CM (complete main)
Параметр Endianness формата : Big
Идентификатор кодека : A_AC3
Продолжительность : 2 ч. 14 м.
Вид битрейта : Постоянный
Битрейт : 448 Кбит/сек
Каналы : 6 каналов
Расположение каналов : Front: L C R, Side: L R, LFE
Частота : 48,0 КГц
Битовая глубина : 16 бит
Метод сжатия : С потерями
Размер потока : 432 Мбайт (4%)
Язык : English
Default : Нет
Forced : Нет
Текст #1
Идентификатор : 7
Формат : UTF-8
Идентификатор кодека : S_TEXT/UTF8
Идентификатор кодека/Информация : UTF-8 Plain Text
Язык : Russian
Default : Нет
Forced : Нет
Текст #2
Идентификатор : 8
Формат : UTF-8
Идентификатор кодека : S_TEXT/UTF8
Идентификатор кодека/Информация : UTF-8 Plain Text
Язык : English
Default : Нет
Forced : Нет
Меню
00:00:00.000 : en:00:00:00.000
00:11:33.693 : en:00:11:33.693
00:22:53.038 : en:00:22:53.038
00:33:55.450 : en:00:33:55.450
00:45:44.075 : en:00:45:44.075
00:58:00.560 : en:00:58:00.560
01:06:44.959 : en:01:06:44.959
01:16:28.542 : en:01:16:28.542
01:27:42.674 : en:01:27:42.674
01:42:20.926 : en:01:42:20.926
01:50:01.220 : en:01:50:01.220
01:59:20.236 : en:01:59:20.236







   Похожие торренты   Торрент   Размер 
В этой теме нет новых непрочитанных сообщений. Кинг-Конг / King Kong (1976) BDRip-AVC от ImperiaFilm | P

13 | 1

747.16 МБ

В этой теме нет новых непрочитанных сообщений. Кинг Конг / King Kong (2005) HDRip от Scarabey | D | Расширенная версия

114 | 2

2.18 ГБ

В этой теме нет новых непрочитанных сообщений. Кинг Конг жив / King Kong Lives (1986) DVDRip от ImperiaFilm | P2

17 | 4

745.07 МБ

В этой теме нет новых непрочитанных сообщений. Кинг Конг / King Kong (2005) UHD BDRemux 2160p | 4K | HDR | Режиссерская версия | D, P, A | Лицензия

19 | 16

100.19 ГБ

В этой теме нет новых непрочитанных сообщений. Кинг Конг [Расширенная версия] / King Kong [Extended Cut] [Open Matte] (Питер Джексон) [2005, боевик, драма, мелодрама, приключения, фэнтези, HDTVRip-AVC] DUB+MVO

9 | 0

1.46 ГБ

В этой теме нет новых непрочитанных сообщений. Конг: Остров черепа / Kong: Skull Island (2017) BDRip 720p | Лицензия

1500 | 41

5.84 ГБ

В этой теме нет новых непрочитанных сообщений. Конг: Остров черепа / Kong: Skull Island (2017) BDRip 720p от HELLYWOOD | Лицензия

79 | 8

5.76 ГБ




Вы не можете начинать темы
Вы не можете отвечать на сообщения
Вы не можете редактировать свои сообщения
Вы не можете удалять свои сообщения
Вы не можете добавлять вложения

Перейти:  
Контактная информация: rstracker[пёсик]yandex.ru
 Вход
ppkBB3cker v.2 © 2008-2014 @ PPK
[ Time : 0.038s | 20 Queries | GZIP : Off ]

cron