img image001 image001 image001 image001 image001 image001 image001 image001 image001 image001 image001 image001 image001 image001 image001 image001

Planets Sun Sun Sun
Статистика раздачи
Автор: PriZraK | Размер: 25.55 ГБ | Добавлен: 10 фев 2017
Раздают: 0    Качают: 0
Скачать торрент
Скачать торрент
Описание торрента

СообщениеДобавлено: 10 фев 2017 


Информация о фильме
Название: Вкус меда
Оригинальное название: A Taste of Honey
Год выхода: 1961
Жанр: драма
Режиссер: Тони Ричардсон
В ролях: Дора Брайан, Роберт Стивенс, Рита Ташингэм, Мюррэй Мелвин, Пол Данкуа, Майкл Билтон, Юнис Блэк, Дэвид Боливер, Марго Каннингэм, А. Гудман, Джон Харрисон, Вероника Ховард, Мойра Кэй, Valerie Scarden, Херберт Смит, Розали Уильямс, Линда Льюис, Джанет Ругг
О фильме: Речь в фильме идет о пяти людях, их мечтах, надеждах и страхах. Это Джо, ее легкомысленная мамаша, которой нет никакого дела до дочери, пижон, за которого она выходит замуж, молодой чернокожий корабельный кок, с которым у Джо вспыхивает короткая любовная связь, приводящая к беременности, и юный утонченный гомосексуалист, дающий ей нежность и любовь, которых так не хватает ей в отношениях с матерью.

Страна: Великобритания
Продолжительность: 01:40:56
Перевод: Любительский (одноголосый закадровый) Валерий Казаков
Cубтитры: английские
Оригинальная аудиодорожка: английский
Файл
Кодек: MPEG4
Качество: BDRemux 1080р
Видео: 1920x1080 / 16:9 / 23.976fps / 34977Kbps / High@L4.1
Аудио 1: AC3 / 48.0 KHz / 2ch. / 192kbps / Rus / VO / Валерий Казаков
Аудио 2: DTS-HD MA / 48.0 KHz / 1ch / 1070kbps / 24bit (DTS Core 48.0 KHz / 1ch / 768kbps / 24bit) Eng

Общее
Уникальный идентификатор : 194822992455282148251177068939436268088 (0x92918B22FA6E2D3285051DC4A9669A38)
Полное имя : G:!!!_torrentA.Taste.of.Honey.1961.BDRemux.1080p_by_vedigo.mkv
Формат : Matroska
Версия формата : Version 4 / Version 2
Размер файла : 25,5 Гбайт
Продолжительность : 1 ч. 40 м.
Режим общего битрейта : Переменный
Общий поток : 36,2 Мбит/сек
Название фильма : A.Taste.of.Honey.1961.BDRemux.1080p_by_vedigo
Дата кодирования : UTC 2016-12-22 03:31:01
Программа кодирования : mkvmerge v9.6.0 ('Slave To Your Mind') 64bit
Библиотека кодирования : libebml v1.3.4 + libmatroska v1.4.5
Видео
Идентификатор : 1
Формат : AVC
Формат/Информация : Advanced Video Codec
Профиль формата : High@L4.1
Параметр CABAC формата : Да
Параметр ReFrames формата : 4 кадра
Идентификатор кодека : V_MPEG4/ISO/AVC
Продолжительность : 1 ч. 40 м.
Вид битрейта : Переменный
Битрейт : 35,0 Мбит/сек
Максимальный битрейт : 37,0 Мбит/сек
Ширина : 1920 пикселей
Высота : 1080 пикселей
Соотношение сторон : 16:9
Режим частоты кадров : Постоянный
Частота кадров : 23,976 (24000/1001) кадра/сек
Цветовое пространство : YUV
Субдискретизация насыщенности : 4:2:0
Битовая глубина : 8 бит
Тип развёртки : Прогрессивная
Бит/(Пиксели*Кадры) : 0.703
Размер потока : 24,7 Гбайт (97%)
Заголовок : A.Taste.of.Honey.1961.BDRemux.1080p_by_vedigo
Default : Да
Forced : Нет
Аудио #1
Идентификатор : 2
Формат : AC-3
Формат/Информация : Audio Coding 3
Расширение режима : CM (complete main)
Параметр Endianness формата : Big
Идентификатор кодека : A_AC3
Продолжительность : 1 ч. 40 м.
Вид битрейта : Постоянный
Битрейт : 192 Кбит/сек
Каналы : 2 канала
Расположение каналов : Front: L R
Частота : 48,0 КГц
Частота кадров : 31,250 кадров/сек (1536 spf)
Битовая глубина : 16 бит
Метод сжатия : С потерями
Размер потока : 139 Мбайт (1%)
Заголовок : VO @ В. Казаков
Язык : Russian
Default : Да
Forced : Нет
Аудио #2
Идентификатор : 3
Формат : DTS
Формат/Информация : Digital Theater Systems
Профиль формата : MA / Core
Режим : 16
Параметр Endianness формата : Big
Идентификатор кодека : A_DTS
Продолжительность : 1 ч. 40 м.
Вид битрейта : Переменный / Постоянный
Битрейт : 1070 Кбит/сек / 768 Кбит/сек
Каналы : 1 канал
Расположение каналов : Front: C
Частота : 48,0 КГц
Частота кадров : 93,750 кадра/сек (512 spf)
Битовая глубина : 24 бит
Метод сжатия : Без потерь / Lossy
Размер потока : 772 Мбайт (3%)
Заголовок : Original
Язык : English
Default : Нет
Forced : Нет
Текст
Идентификатор : 4
Формат : UTF-8
Идентификатор кодека : S_TEXT/UTF8
Идентификатор кодека/Информация : UTF-8 Plain Text
Продолжительность : 1 ч. 39 м.
Битрейт : 59 бит/сек
Count of elements : 1143
Размер потока : 43,2 Кбайт (0%)
Заголовок : Subtitle eng
Язык : English
Default : Нет
Forced : Нет
Меню
00:00:00.000 : en:00:00:00.000
00:08:27.757 : en:00:08:27.757
00:13:14.502 : en:00:13:14.502
00:18:35.740 : en:00:18:35.740
00:22:35.020 : en:00:22:35.020
00:29:37.776 : en:00:29:37.776
00:34:14.970 : en:00:34:14.970
00:40:12.410 : en:00:40:12.410
00:46:17.858 : en:00:46:17.858
00:52:42.159 : en:00:52:42.159
00:58:33.510 : en:00:58:33.510
01:05:45.942 : en:01:05:45.942
01:14:24.752 : en:01:14:24.752
01:19:49.076 : en:01:19:49.076
01:27:17.232 : en:01:27:17.232
01:29:47.382 : en:01:29:47.382
01:34:32.041 : en:01:34:32.041



   Похожие торренты   Торрент   Размер 
В этой теме нет новых непрочитанных сообщений. Горшок меда / The Honey Pot (1967) BDRip 720p | P2, P

71 | 11

9.21 ГБ

В этой теме нет новых непрочитанных сообщений. Вкус денег / The Taste of Money / Don-eui Mat (2012) HDTVRip | L2

10 | 19

1.49 ГБ

В этой теме нет новых непрочитанных сообщений. Вкус денег / The Taste of Money / Do-nui mat (2012) HDTVRip | L1

17 | 4

1.49 ГБ

В этой теме нет новых непрочитанных сообщений. Вкус денег / The Taste of Money (2012) BDRip 720p

3 | 1

5.09 ГБ

В этой теме нет новых непрочитанных сообщений. Вкус азарта / Taste of Excitement (1970) DVDRip | SATKUR

83 | 15

1.49 ГБ

В этой теме нет новых непрочитанных сообщений. В краю крови и меда / In the Land of Blood and Honey (2011) Blu-Ray от BLUEBIRD

6 | 2

41.7 ГБ

В этой теме нет новых непрочитанных сообщений. Горький вкус свободы / A Bitter Taste of Freedom (2011) DVB Sauliux

2 | 6

1.44 ГБ




Вы не можете начинать темы
Вы не можете отвечать на сообщения
Вы не можете редактировать свои сообщения
Вы не можете удалять свои сообщения
Вы не можете добавлять вложения

Перейти:  
 Вход
ppkBB3cker v.2 © 2008-2014 @ PPK
[ Time : 0.025s | 15 Queries | GZIP : Off ]

cron