img image001 image001 image001 image001 image001 image001 image001 image001 image001 image001 image001 image001 image001 image001 image001

Planets Sun Sun Sun

COVID-19 - Последняя информация о коронавирусе на сайте Минздрава


Статистика раздачи
Автор: PriZraK | Размер: 697.53 МБ | Добавлен: 12 фев 2017
Раздают: 3    Качают: 3
Скачать торрент
Скачать торрент
Описание торрента

СообщениеДобавлено: 12 фев 2017 


Информация о фильме
Название: Из-под земли
Оригинальное название: Unearthed
Год выхода: 2007
Жанр: ужасы, триллер
Режиссер: Мэттью Льютуайлер
В ролях: Люк Госс, Дебора Оффнер, Марк Келли, Рассел Минс, Тонанцин Кармело, Чарльз Мёрфи, Эммануэль Вожье, М. К. Гейни, Крис Эндрю Кулла
О фильме: Во время раскопок в Нью-Мехико археологи пробуждают ото сна отвратительное чудовище. Эта инопланетная тварь пролежала там почти тысячу лет! Разъяренный монстр уничтожает все живое, что попадется на его пути. Местная женщина-шериф, в последнее время часто злоупотребляет алкоголем. Поэтому ей хватает и своих демонов! Но именно ей выпала участь возглавить отряд бойцов, которые пытаются уничтожить это исчадие ада.

Страна: США
Студия: Ambush Entertainment, Cold Iron Pictures, Combustion Studios
Продолжительность: 01:33:44
Перевод: Профессиональный (многоголосый, закадровый)
Субтитры: Нет
Семпл
Файл
Кодек: XviD
Качество: HDRip
Видео: 704x288 (2.44:1), 24 fps, XviD build 73 ~909 kbps avg, 0.19 bit/pixel
Звук: 48 kHz, MPEG Layer 3, 2 ch, ~128.00 kbps avg
Общее
Полное имя : Unearthed.2007.HDRip.ot.Portablius.avi
Формат : AVI
Формат/Информация : Audio Video Interleave
Размер файла : 698 Мбайт
Продолжительность : 1 ч. 33 м.
Общий поток : 1047 Кбит/сек
Программа кодирования : VirtualDubMod 1.5.10.3 | www.virtualdub-fr.org || (build 2550/release)
Библиотека кодирования : VirtualDub build 35491/release
Видео
Идентификатор : 0
Формат : MPEG-4 Visual
Профиль формата : Advanced Simple@L5
Параметр BVOP формата : 1
Параметр QPel формата : Нет
Параметр GMC формата : Без точки перехода
Параметр матрицы формата : Выборочная
Идентификатор кодека : XVID
Идентификатор кодека/Подсказка : XviD
Продолжительность : 1 ч. 33 м.
Битрейт : 910 Кбит/сек
Ширина : 704 пикселя
Высота : 288 пикселей
Соотношение сторон : 2,40:1
Частота кадров : 24,000 кадра/сек
Цветовое пространство : YUV
Субдискретизация насыщенности : 4:2:0
Битовая глубина : 8 бит
Тип развёртки : Прогрессивная
Метод сжатия : С потерями
Бит/(Пиксели*Кадры) : 0.187
Размер потока : 606 Мбайт (87%)
Библиотека кодирования : XviD 73
Аудио
Идентификатор : 1
Формат : MPEG Audio
Версия формата : Version 1
Профиль формата : Layer 3
Идентификатор кодека : 55
Идентификатор кодека/Подсказка : MP3
Продолжительность : 1 ч. 33 м.
Вид битрейта : Постоянный
Битрейт : 128 Кбит/сек
Каналы : 2 канала
Частота : 48,0 КГц
Метод сжатия : С потерями
Размер потока : 85,2 Мбайт (12%)
Выравнивание : Соединение по промежуткам
Продолжительность промежутка : 42 мс. (1,00 видеокадр)
Время предзагрузки промежутка : 504 мс.
Библиотека кодирования : LAME3.99r
Настройки программы : -m s -V 4 -q 2 -lowpass 17 -b 128








   Похожие торренты   Торрент   Размер 
В этой теме нет новых непрочитанных сообщений. Из-под земли / Unearthed (2007) HDRip-AVC | P

0 | 0

744.37 МБ

В этой теме нет новых непрочитанных сообщений. Из-под земли / Unearthed (2007) BDRip 1080p | P

0 | 0

6.85 ГБ

В этой теме нет новых непрочитанных сообщений. Из-под земли / Unearthed (2007) BDRip 720p | P

1 | 0

4.66 ГБ

В этой теме нет новых непрочитанных сообщений. Эван Всемогущий / Evan Almighty (2007) HDRip от Portablius | D

36 | 4

745.16 МБ

В этой теме нет новых непрочитанных сообщений. Кровь и шоколад / Blood and Chocolate (2007) HDRip от Portablius | D

34 | 15

743.69 МБ

В этой теме нет новых непрочитанных сообщений. Человек в сером / The Gray Man (2007) HDRip от Portablius | L1

85 | 47

744.91 МБ

В этой теме нет новых непрочитанных сообщений. Враги (2007) HDTVRip от Portablius

8 | 1

699.17 МБ




Вы не можете начинать темы
Вы не можете отвечать на сообщения
Вы не можете редактировать свои сообщения
Вы не можете удалять свои сообщения
Вы не можете добавлять вложения

Перейти:  
Контактная информация: rstracker[пёсик]yandex.ru
 Вход
ppkBB3cker v.2 © 2008-2014 @ PPK
[ Time : 0.024s | 15 Queries | GZIP : Off ]

cron