img image001 image001 image001 image001 image001 image001 image001 image001 image001 image001 image001 image001 image001 image001 image001

Planets Sun Sun Sun
Статистика раздачи
Автор: PriZraK | Размер: 2.17 ГБ | Добавлен: 14 фев 2017
Раздают: 1    Качают: 3
Скачать торрент
Скачать торрент
Описание торрента

СообщениеДобавлено: 14 фев 2017 

Информация о фильме
Название: Двойная жизнь
Оригинальное название: Second Skin
Год выхода: 2000
Жанр: триллер, детектив, драма, криминал
Режиссер: Даррелл Рудт / Darrell Roodt
В ролях: Наташа Хенстридж, Энгус МакФадьен, Лайам Вейт, Norman Anstey, Питер Фонда, Андре Джейкобс, Pierre Malherbe, Терри Нортон, Пэдди Кэнаван, Анита Берк
О фильме:
Будничная скука, усыпляющая Сэма в провинциальном американском городке, прервалась после появления таинственной незнакомки. Кристал, авантюристка-блондинка, скрывает свое прошлое. Но и Сэм оберегает свою жизнь от любопытных взглядов. Их безумная страсть чревата разрывом, а близость - опасным разоблачением. Другого выхода, кроме как избавиться друг от друга, здесь нет?

Страна: Канада, Великобритания, ЮАР
Продолжительность: 01:27:02
Перевод: Професиональный многоголосый закадровый + авторский одноголосый (Живов)
Файл
Кодек: AVC
Качество: DVDRip
Видео: 710@1009x572 | 16:9 | 25 кадров/сек | 2411 Кбит/сек
Звук:
AC-3 | 48,0 КГц | 448 Кбит/сек | 3/2 (L,C,R,l,r) + LFE ch | MVO
AC-3 | 48,0 КГц | 192 Кбит/сек | стерео | AVO Живов
AC-3 | 48,0 КГц | 448 Кбит/сек | 3/2 (L,C,R,l,r) + LFE ch | ENG
Субтитры: русские
x264 [info]: frame I:1109 Avg QP:14.67 size: 52502
x264 [info]: frame P:26784 Avg QP:16.03 size: 24363
x264 [info]: frame B:102677 Avg QP:18.16 size: 8842
==============================================
Формат : Matroska
Версия формата : Version 2
Размер файла : 2,17 Гбайт
Продолжительность : 1 ч. 27 м.
Общий поток : 3570 Кбит/сек
Дата кодирования : UTC 2017-02-12 08:48:52
Программа кодирования : mkvmerge v9.2.0 ('Photograph') 32bit
Библиотека кодирования : libebml v1.3.3 + libmatroska v1.4.4
Обложка : Yes
Attachments : cover.jpg
Видео
Идентификатор : 1
Формат : AVC
Формат/Информация : Advanced Video Codec
Профиль формата : High@L3.2
Параметр CABAC формата : Да
Параметр ReFrames формата : 12 кадров
Идентификатор кодека : V_MPEG4/ISO/AVC
Продолжительность : 1 ч. 27 м.
Битрейт : 2411 Кбит/сек
Ширина : 710 пикселей
Высота : 572 пикселя
Соотношение сторон : 16:9
Соотношение сторон в оригинале : 16:9
Режим частоты кадров : Постоянный
Частота кадров : 25,000 кадров/сек
Цветовое пространство : YUV
Субдискретизация насыщенности : 4:2:0
Битовая глубина : 8 бит
Тип развёртки : Прогрессивная
Бит/(Пиксели*Кадры) : 0.237
Размер потока : 1,47 Гбайт (68%)
Библиотека кодирования : x264 core 148 r2744 b97ae06
Настройки программы : cabac=1 / ref=12 / deblock=1:0:0 / analyse=0x3:0x113 / me=umh / subme=11 / psy=1 / psy_rd=1.00:0.05 / mixed_ref=1 / me_range=32 / chroma_me=1 / trellis=2 / 8x8dct=1 / cqm=0 / deadzone=21,11 / fast_pskip=1 / chroma_qp_offset=-3 / threads=4 / lookahead_threads=1 / sliced_threads=0 / nr=0 / decimate=1 / interlaced=0 / bluray_compat=0 / constrained_intra=0 / bframes=8 / b_pyramid=2 / b_adapt=2 / b_bias=0 / direct=1 / weightb=1 / open_gop=0 / weightp=2 / keyint=250 / keyint_min=25 / scenecut=40 / intra_refresh=0 / rc=crf / mbtree=0 / crf=17.5 / qcomp=0.70 / qpmin=0 / qpmax=69 / qpstep=4 / ip_ratio=1.40 / pb_ratio=1.30 / aq=3:0.90
Язык : English
Default : Да
Forced : Нет
Аудио #1
Идентификатор : 2
Формат : AC-3
Формат/Информация : Audio Coding 3
Расширение режима : CM (complete main)
Параметр Endianness формата : Big
Идентификатор кодека : A_AC3
Продолжительность : 1 ч. 27 м.
Вид битрейта : Постоянный
Битрейт : 448 Кбит/сек
Каналы : 6 каналов
Расположение каналов : Front: L C R, Side: L R, LFE
Частота : 48,0 КГц
Частота кадров : 31,250 кадров/сек (1536 spf)
Битовая глубина : 16 бит
Метод сжатия : С потерями
Размер потока : 279 Мбайт (13%)
Заголовок : MVO
Язык : Russian
Default : Да
Forced : Нет
Аудио #2
Идентификатор : 3
Формат : AC-3
Формат/Информация : Audio Coding 3
Расширение режима : CM (complete main)
Параметр Endianness формата : Big
Идентификатор кодека : A_AC3
Продолжительность : 1 ч. 27 м.
Вид битрейта : Постоянный
Битрейт : 192 Кбит/сек
Каналы : 2 канала
Расположение каналов : Front: L R
Частота : 48,0 КГц
Частота кадров : 31,250 кадров/сек (1536 spf)
Битовая глубина : 16 бит
Метод сжатия : С потерями
Размер потока : 120 Мбайт (5%)
Заголовок : AVO Живов
Язык : Russian
Default : Нет
Forced : Нет
Аудио #3
Идентификатор : 4
Формат : AC-3
Формат/Информация : Audio Coding 3
Расширение режима : CM (complete main)
Параметр Endianness формата : Big
Идентификатор кодека : A_AC3
Продолжительность : 1 ч. 27 м.
Вид битрейта : Постоянный
Битрейт : 448 Кбит/сек
Каналы : 6 каналов
Расположение каналов : Front: L C R, Side: L R, LFE
Частота : 48,0 КГц
Частота кадров : 31,250 кадров/сек (1536 spf)
Битовая глубина : 16 бит
Метод сжатия : С потерями
Размер потока : 279 Мбайт (13%)
Язык : English
Default : Нет
Forced : Нет
Текст
Идентификатор : 5
Формат : UTF-8
Идентификатор кодека : S_TEXT/UTF8
Идентификатор кодека/Информация : UTF-8 Plain Text
Язык : Russian
Default : Нет
Forced : Нет
Меню
00:00:00.000 : :Chapter 01
00:00:22.080 : :Chapter 02
00:08:45.120 : :Chapter 03
00:17:00.960 : :Chapter 04
00:25:29.760 : :Chapter 05
00:28:37.440 : :Chapter 06
00:33:00.960 : :Chapter 07
00:37:38.880 : :Chapter 08
00:39:29.760 : :Chapter 09
00:47:26.880 : :Chapter 10
00:50:41.760 : :Chapter 11
00:52:34.080 : :Chapter 12
00:58:48.960 : :Chapter 13
01:05:32.640 : :Chapter 14
01:08:24.960 : :Chapter 15
01:13:19.680 : :Chapter 16
01:20:45.120 : :Chapter 17




   Похожие торренты   Торрент   Размер 
В этой теме нет новых непрочитанных сообщений. Двойная жизнь / Second Skin (2000) DVDRip | P

75 | 45

1.46 ГБ

В этой теме нет новых непрочитанных сообщений. Секс файлы: Двойная жизнь / Sex Files: Double Identity (1998) DVDRip

75 | 10

700.47 МБ

В этой теме нет новых непрочитанных сообщений. The Cranberries - Beneath The Skin (2000) DVDRip от NovaLan

4 | 55

1.37 ГБ

В этой теме нет новых непрочитанных сообщений. Секс файлы: Двойная жизнь / Confessions of a Call Girl / Sex Files: Double Identity (1998) DVDRip от KinoRay & Sheikn | P

767 | 155

1.37 ГБ

В этой теме нет новых непрочитанных сообщений. Жизнь за жизнь / Jung (2000) DVDRip от Files-x

3 | 4

2.33 ГБ

В этой теме нет новых непрочитанных сообщений. Двойная жизнь [01-10 из 10] (2014) SATRip

877 | 223

5.65 ГБ

В этой теме нет новых непрочитанных сообщений. Двойная жизнь [01-10 из 10] (2014) WEB-DLRip

157 | 18

5.87 ГБ




Вы не можете начинать темы
Вы не можете отвечать на сообщения
Вы не можете редактировать свои сообщения
Вы не можете удалять свои сообщения
Вы не можете добавлять вложения

Перейти:  
Для Мосгорсуда, Роскомнадзора и рекламодателей: mosgorsud-torrent[собачка]yandex.ru
 Вход
ppkBB3cker v.2 © 2008-2014 @ PPK
[ Time : 0.052s | 19 Queries | GZIP : Off ]

cron