img image001 image001 image001 image001 image001 image001 image001 image001 image001 image001 image001 image001 image001 image001 image001 image001

Planets Sun Sun Sun
Статистика раздачи
Автор: PriZraK | Размер: 5.36 ГБ | Добавлен: 18 фев 2017
Раздают: 7    Качают: 3
Скачать торрент
Скачать торрент
Описание торрента

СообщениеДобавлено: 18 фев 2017 

Избавление

Deliverance

«Deliverance from evil»



Страна: США
Жанр: триллер, драма, приключения
Год выпуска: 1972
Продолжительность: 01:49:02
Перевод: Профессиональный (полное дублирование), Профессиональный (многоголосый, закадровый), Авторский
Субтитры: английские


Режиссер: Джон Бурмен / John Boorman


В ролях: Джон Войт (Ed), Берт Рейнолдс (Lewis), Нед Битти (Bobby), Ронни Кокс (Drew), Билл МакКинни (Mountain Man), Эд Раме (Old Man), Билли Редден (Lonnie), Симон Гласс (First Griner), Рэндолл Дил (Second Griner), Херберт «Ковбой» Кауорд (Toothless Man), Льюис Кроун (First Deputy), Кен Кинер (Second Deputy)


Описание: Четверо отправляются в путешествие в дикую и пустынную местность в Аппалачах. Они спускаются вниз по реке на двух лодках. В их намерения входит просто отдохнуть, развеяться и посмотреть живописные места...



MPAA: R - Лицам до 17 лет обязательно присутствие взрослого


Семпл


Релиз от:


Качество: BDRip
Контейнер: MKV
Видео: AVC, 1280x536 (2.40:1), 5368 kbps, 23,976 fps, 0,326 bpp
Аудио №1: русский / AC3 / 2.0 / 48 kHz / 192 kbps / Дубляж ( Варус-Видео )
Аудио №2: русский / AC3 / 5.1 / 48 kHz / 640 kbps / MVO
Аудио №3: русский / AC3 / 2.0 / 48 kHz / 192 kbps / AVO ( Живов )
Аудио №4: английский / AC3 / 5.1 / 48 kHz / 640 kbps
Навигация по главам: есть


***********************************************************
x264 [info]: frame I:910 Avg QP:16.13 size:105882
x264 [info]: frame P:32181 Avg QP:18.93 size: 47726
x264 [info]: frame B:123774 Avg QP:20.76 size: 22278
***********************************************************
Формат : Matroska
Версия формата : Version 2
Размер файла : 5,36 Гбайт
Продолжительность : 1 ч. 49 м.
Общий поток : 7035 Кбит/сек
Название фильма : = Избавление / Deliverance (1972) BDRip 720p =
Дата кодирования : UTC 2017-02-18 06:08:29
Программа кодирования : mkvmerge v5.8.0 ('No Sleep / Pillow') built on Sep 2 2012 15:37:04
Библиотека кодирования : libebml v1.2.3 + libmatroska v1.3.0
Attachment : Yes
Видео
Идентификатор : 1
Формат : AVC
Формат/Информация : Advanced Video Codec
Профиль формата : High@L4.1
Параметр CABAC формата : Да
Параметр ReFrames формата : 12 кадров
Идентификатор кодека : V_MPEG4/ISO/AVC
Продолжительность : 1 ч. 49 м.
Битрейт : 5368 Кбит/сек
Ширина : 1280 пикселей
Высота : 536 пикселей
Соотношение сторон : 2,40:1
Режим частоты кадров : Постоянный
Частота кадров : 23,976 кадра/сек
Цветовое пространство : YUV
Субдискретизация насыщенности : 4:2:0
Битовая глубина : 8 бит
Тип развёртки : Прогрессивная
Бит/(Пиксели*Кадры) : 0.326
Размер потока : 3,98 Гбайт (74%)
Заголовок : Избавление / Deliverance (1972) BDRip 720p
Библиотека кодирования : x264 core 146 r2538 121396c
Настройки программы : cabac=1 / ref=12 / deblock=1:-3:-3 / analyse=0x3:0x113 / me=umh / subme=11 / psy=1 / psy_rd=1.00:0.00 / mixed_ref=1 / me_range=32 / chroma_me=1 / trellis=2 / 8x8dct=1 / cqm=0 / deadzone=21,11 / fast_pskip=0 / chroma_qp_offset=-2 / threads=12 / lookahead_threads=3 / sliced_threads=0 / nr=0 / decimate=0 / interlaced=0 / bluray_compat=0 / constrained_intra=0 / bframes=12 / b_pyramid=2 / b_adapt=2 / b_bias=0 / direct=3 / weightb=1 / open_gop=0 / weightp=2 / keyint=240 / keyint_min=23 / scenecut=40 / intra_refresh=0 / rc=2pass / mbtree=0 / bitrate=5368 / ratetol=1.0 / qcomp=0.60 / qpmin=0 / qpmax=69 / qpstep=4 / cplxblur=20.0 / qblur=0.5 / ip_ratio=1.40 / pb_ratio=1.30 / aq=2:0.70
Язык : English
Default : Да
Forced : Нет
Основные цвета : BT.709
Характеристики трансфера : BT.709
Коэффициенты матрицы : BT.709
Аудио #1
Идентификатор : 2
Формат : AC-3
Формат/Информация : Audio Coding 3
Расширение режима : CM (complete main)
Параметр Endianness формата : Big
Идентификатор кодека : A_AC3
Продолжительность : 1 ч. 49 м.
Вид битрейта : Постоянный
Битрейт : 192 Кбит/сек
Каналы : 2 канала
Расположение каналов : Front: L R
Частота : 48,0 КГц
Битовая глубина : 16 бит
Метод сжатия : С потерями
Размер потока : 150 Мбайт (3%)
Заголовок : Дубляж ( Варус-Видео )
Язык : Russian
Default : Да
Forced : Нет
Аудио #2
Идентификатор : 3
Формат : AC-3
Формат/Информация : Audio Coding 3
Расширение режима : CM (complete main)
Параметр Endianness формата : Big
Идентификатор кодека : A_AC3
Продолжительность : 1 ч. 49 м.
Вид битрейта : Постоянный
Битрейт : 640 Кбит/сек
Каналы : 6 каналов
Расположение каналов : Front: L C R, Side: L R, LFE
Частота : 48,0 КГц
Битовая глубина : 16 бит
Метод сжатия : С потерями
Размер потока : 499 Мбайт (9%)
Заголовок : MVO
Язык : Russian
Default : Нет
Forced : Нет
Аудио #3
Идентификатор : 4
Формат : AC-3
Формат/Информация : Audio Coding 3
Расширение режима : CM (complete main)
Параметр Endianness формата : Big
Идентификатор кодека : A_AC3
Продолжительность : 1 ч. 49 м.
Вид битрейта : Постоянный
Битрейт : 192 Кбит/сек
Каналы : 2 канала
Расположение каналов : Front: L R
Частота : 48,0 КГц
Битовая глубина : 16 бит
Метод сжатия : С потерями
Размер потока : 150 Мбайт (3%)
Заголовок : AVO ( Живов )
Язык : Russian
Default : Нет
Forced : Нет
Аудио #4
Идентификатор : 5
Формат : AC-3
Формат/Информация : Audio Coding 3
Расширение режима : CM (complete main)
Параметр Endianness формата : Big
Идентификатор кодека : A_AC3
Продолжительность : 1 ч. 49 м.
Вид битрейта : Постоянный
Битрейт : 640 Кбит/сек
Каналы : 6 каналов
Расположение каналов : Front: L C R, Side: L R, LFE
Частота : 48,0 КГц
Битовая глубина : 16 бит
Метод сжатия : С потерями
Размер потока : 499 Мбайт (9%)
Язык : English
Default : Нет
Forced : Нет
Текст
Идентификатор : 6
Формат : UTF-8
Идентификатор кодека : S_TEXT/UTF8
Идентификатор кодека/Информация : UTF-8 Plain Text
Язык : English
Default : Нет
Forced : Нет
Меню
00:00:00.000 : en:00:00:00.000
00:02:53.423 : en:00:02:53.423
00:05:31.164 : en:00:05:31.164
00:09:43.124 : en:00:09:43.124
00:13:22.010 : en:00:13:22.010
00:17:16.744 : en:00:17:16.744
00:20:05.538 : en:00:20:05.538
00:21:22.323 : en:00:21:22.323
00:25:49.214 : en:00:25:49.214
00:27:45.747 : en:00:27:45.747
00:32:25.610 : en:00:32:25.610
00:36:22.055 : en:00:36:22.055
00:41:51.050 : en:00:41:51.050
00:46:20.027 : en:00:46:20.027
00:49:55.701 : en:00:49:55.701
00:56:44.151 : en:00:56:44.151
01:00:09.022 : en:01:00:09.022
01:04:22.942 : en:01:04:22.942
01:09:21.574 : en:01:09:21.574
01:14:00.436 : en:01:14:00.436
01:17:44.577 : en:01:17:44.577
01:22:37.661 : en:01:22:37.661
01:24:53.588 : en:01:24:53.588
01:27:04.261 : en:01:27:04.261
01:29:01.211 : en:01:29:01.211
01:30:46.858 : en:01:30:46.858
01:37:10.074 : en:01:37:10.074
01:40:38.616 : en:01:40:38.616
01:42:46.911 : en:01:42:46.911
01:46:09.113 : en:01:46:09.113









   Похожие торренты   Торрент   Размер 
В этой теме нет новых непрочитанных сообщений. Избавление / Deliverance (1972) BDRip 1080p от NNNB | D, P, A

37 | 33

10.06 ГБ

В этой теме нет новых непрочитанных сообщений. Opeth - Deliverance & Damnation [2CD] (2015) FLAC

37 | 1

696.02 МБ

В этой теме нет новых непрочитанных сообщений. Kingdom Come: Deliverance [v 1.6.2 + DLCs] (2018) PC | Repack от =nemos=

0 | 0

35.52 ГБ

В этой теме нет новых непрочитанных сообщений. Бухта спасения / Deliverance Creek (2014) WEB-DLRip | P

235 | 16

1.37 ГБ

В этой теме нет новых непрочитанных сообщений. Бухта спасения / Deliverance Creek (2014) WEB-DLRip | L1

396 | 40

1.36 ГБ

В этой теме нет новых непрочитанных сообщений. Kingdom Come: Deliverance [v 1.6.0 + DLCs] (2018) PC | Repack от =nemos=

95 | 10

35.39 ГБ

В этой теме нет новых непрочитанных сообщений. В чем дело, док? / What's Up, Doc? (1972) BDRip 720p

51 | 42

4.37 ГБ




Вы не можете начинать темы
Вы не можете отвечать на сообщения
Вы не можете редактировать свои сообщения
Вы не можете удалять свои сообщения
Вы не можете добавлять вложения

Перейти:  
 Вход
ppkBB3cker v.2 © 2008-2014 @ PPK
[ Time : 0.036s | 16 Queries | GZIP : Off ]

cron