img image001 image001 image001 image001 image001 image001 image001 image001 image001 image001 image001 image001 image001 image001 image001

Planets Sun Sun Sun

COVID-19 - Последняя информация о коронавирусе на сайте Минздрава


Статистика раздачи
Автор: PriZraK | Размер: 5.76 ГБ | Добавлен: 22 фев 2017
Раздают: 4    Качают: 1
Скачать торрент
Скачать торрент
Описание торрента

СообщениеДобавлено: 22 фев 2017 


✘ Плохая компания ✘



Информация о фильме
✦ Год выхода: 2002
✦ Название: Плохая компания
✦ Оригинальное название: Bad Company
✦ Жанр: Комедия, боевик
✦ Режиссер: Джоэл Шумахер
✦ В ролях: Крис Рок, Энтони Хопкинс, Керри Вашигтон, Брук Смит, Гарселл Бьювайс, Ших Уигхэм, Майкл Или, Петер Стормаре, Гэбриел Махт, Адони Маропис, Гарсель Бове, Драган Мичанович, Джон Слэттери, Брук Смит, Дэниэл Санжата, ДеВоун Лоусон мл., Марек Вашут, Питер Макдисси, Ирма П. Холл, Петр Якл, Дэн Зиски, Джон Эйлуорд, Джон Финк, Дебора Раш, Ян Немейовски, Винтер Б. Уларик, Майкл Или, Джанет Рэкуэл.

Описание фильма
Два опытных высококлассных агента ЦРУ Гейлорд Оакес и Кевин Поп выдают себя за покупателей русской бомбы. Но их секретная операция проходит не так успешно, как ожидалось. Кевин Поп убит. Чтобы смерть Кевина осталась незамеченной и операция не сорвалась, ЦРУ вербует брата-близнеца Кевина, Джейка Хейеса (Крис Рок). Всего за девять дней агент Оакес должен сделать из Джейка копию его погибшего брата. Но все осложняется тем, что братья не знали друг друга, у них абсолютно разные характеры, да и росли они в совершенно разных условиях. Кевин вырос в хорошей семье, окончил колледж, а детство Джейка прошло в бедных приемных семьях. Теперь всего за девять дней Джейк должен стать настоящим шпионом, таким же, каким был его погибший брат. Но что из этого получится?

✦ Выпущено: США, Чехия
✦ Продолжительность: 01:56:49
✦ Перевод: Дублированный, профессиональный (многоголосый закадровый), профессиональный (одноголосый закадровый), авторский (одноголосый закадровый)


Информация о файле
✦ Формат:| MKV | x264 |
✦ Качество: WEBRip 720p
✦ Видео: X264/MPEG4-AVC | 1280x720 (16:9) | ~5135 kbps | 23,976 fps
✦ Аудио Rus: AC3 | 48 KHz | 6 ch | ~384 kbps - дубляж
✦ Аудио Rus: AC3 | 48 KHz | 6 ch | ~384 kbps - многоголосый
✦ Аудио Rus: AC3 | 48 KHz | 2 ch | ~192 kbps - многоголосый (Первый канал)
✦ Аудио Rus: AC3 | 48 KHz | 2 ch | ~192 kbps - авторский А.Гаврилов
✦ Аудио Rus: AC3 | 48 KHz | 6 ch | ~384 kbps - одноголосый П.Гланц
✦ Аудио Eng: AC3 | 48 KHz | 6 ch | ~384 kbps - оригинал
✦ Субтитры: | . (полные)| анг. (полные) ||

x264 [info]: profile High, level 4.1
x264 [info]: frame I:2062 Avg QP:14.64 size:136914 PSNR Mean Y:48.09 U:51.47 V:52.58 Avg:48.94 Global:48.54
x264 [info]: frame P:46351 Avg QP:17.39 size: 45259 PSNR Mean Y:46.73 U:53.10 V:53.96 Avg:47.75 Global:47.16
x264 [info]: frame B:119636 Avg QP:19.27 size: 17699 PSNR Mean Y:45.75 U:51.06 V:52.00 Avg:46.78 Global:46.25
Формат : Matroska
Версия формата : Version 2
Размер файла : 5,76 Гбайт
Продолжительность : 1 ч. 56 м.
Общий поток : 7056 Кбит/сек
Название фильма : Bad Company 2002 WEBRip 720p
Дата кодирования : UTC 2017-02-22 09:00:26
Программа кодирования : mkvmerge v5.3.0 ('I could have danced') built on Feb 9 2012 10:38:07
Библиотека кодирования : libebml v1.2.3 + libmatroska v1.3.0
Attachments : poster (6).jpg
Видео
Идентификатор : 1
Формат : AVC
Формат/Информация : Advanced Video Codec
Профиль формата : High@L4.1
Параметр CABAC формата : Да
Параметр ReFrames формата : 11 кадров
Идентификатор кодека : V_MPEG4/ISO/AVC
Продолжительность : 1 ч. 56 м.
Битрейт : 5135 Кбит/сек
Ширина : 1280 пикселей
Высота : 720 пикселей
Соотношение сторон : 16:9
Режим частоты кадров : Постоянный
Частота кадров : 23,976 кадра/сек
Цветовое пространство : YUV
Субдискретизация насыщенности : 4:2:0
Битовая глубина : 8 бит
Тип развёртки : Прогрессивная
Бит/(Пиксели*Кадры) : 0.232
Размер потока : 4,08 Гбайт (71%)
Библиотека кодирования : x264 core 146 r2538 121396c
Настройки программы : cabac=1 / ref=11 / deblock=1:-2:-2 / analyse=0x3:0x133 / me=umh / subme=10 / psy=1 / psy_rd=1.00:0.00 / mixed_ref=1 / me_range=32 / chroma_me=1 / trellis=2 / 8x8dct=1 / cqm=0 / deadzone=21,11 / fast_pskip=0 / chroma_qp_offset=-2 / threads=12 / lookahead_threads=3 / sliced_threads=0 / nr=0 / decimate=0 / interlaced=0 / bluray_compat=0 / constrained_intra=0 / bframes=8 / b_pyramid=2 / b_adapt=2 / b_bias=0 / direct=3 / weightb=1 / open_gop=0 / weightp=2 / keyint=240 / keyint_min=23 / scenecut=40 / intra_refresh=0 / rc=2pass / mbtree=0 / bitrate=5135 / ratetol=1.0 / qcomp=0.60 / qpmin=0 / qpmax=69 / qpstep=4 / cplxblur=20.0 / qblur=0.5 / ip_ratio=1.40 / pb_ratio=1.30 / aq=1:0.80
Язык : English
Default : Да
Forced : Нет
Аудио #1
Идентификатор : 2
Формат : AC-3
Формат/Информация : Audio Coding 3
Расширение режима : CM (complete main)
Параметр Endianness формата : Big
Идентификатор кодека : A_AC3
Продолжительность : 1 ч. 56 м.
Вид битрейта : Постоянный
Битрейт : 384 Кбит/сек
Каналы : 6 каналов
Расположение каналов : Front: L C R, Side: L R, LFE
Частота : 48,0 КГц
Частота кадров : 31,250 кадров/сек (1536 spf)
Битовая глубина : 16 бит
Метод сжатия : С потерями
Размер потока : 321 Мбайт (5%)
Заголовок : Дубляж
Язык : Russian
Default : Да
Forced : Нет
Аудио #2
Идентификатор : 3
Формат : AC-3
Формат/Информация : Audio Coding 3
Расширение режима : CM (complete main)
Параметр Endianness формата : Big
Идентификатор кодека : A_AC3
Продолжительность : 1 ч. 56 м.
Вид битрейта : Постоянный
Битрейт : 384 Кбит/сек
Каналы : 6 каналов
Расположение каналов : Front: L C R, Side: L R, LFE
Частота : 48,0 КГц
Частота кадров : 31,250 кадров/сек (1536 spf)
Битовая глубина : 16 бит
Метод сжатия : С потерями
Размер потока : 321 Мбайт (5%)
Заголовок : Многоголосый
Язык : Russian
Default : Нет
Forced : Нет
Аудио #3
Идентификатор : 4
Формат : AC-3
Формат/Информация : Audio Coding 3
Расширение режима : CM (complete main)
Параметр Endianness формата : Big
Идентификатор кодека : A_AC3
Продолжительность : 1 ч. 56 м.
Вид битрейта : Постоянный
Битрейт : 192 Кбит/сек
Каналы : 2 канала
Расположение каналов : Front: L R
Частота : 48,0 КГц
Частота кадров : 31,250 кадров/сек (1536 spf)
Битовая глубина : 16 бит
Метод сжатия : С потерями
Размер потока : 160 Мбайт (3%)
Заголовок : Многоголосый, 1 канал
Язык : Russian
Default : Нет
Forced : Нет
Аудио #4
Идентификатор : 5
Формат : AC-3
Формат/Информация : Audio Coding 3
Расширение режима : CM (complete main)
Параметр Endianness формата : Big
Идентификатор кодека : A_AC3
Продолжительность : 1 ч. 56 м.
Вид битрейта : Постоянный
Битрейт : 192 Кбит/сек
Каналы : 2 канала
Расположение каналов : Front: L R
Частота : 48,0 КГц
Частота кадров : 31,250 кадров/сек (1536 spf)
Битовая глубина : 16 бит
Метод сжатия : С потерями
Размер потока : 160 Мбайт (3%)
Заголовок : Авторский, Андрей Гаврилов
Язык : Russian
Default : Нет
Forced : Нет
Аудио #5
Идентификатор : 6
Формат : AC-3
Формат/Информация : Audio Coding 3
Расширение режима : CM (complete main)
Параметр Endianness формата : Big
Идентификатор кодека : A_AC3
Продолжительность : 1 ч. 56 м.
Вид битрейта : Постоянный
Битрейт : 384 Кбит/сек
Каналы : 6 каналов
Расположение каналов : Front: L C R, Side: L R, LFE
Частота : 48,0 КГц
Частота кадров : 31,250 кадров/сек (1536 spf)
Битовая глубина : 16 бит
Метод сжатия : С потерями
Размер потока : 321 Мбайт (5%)
Заголовок : Одноголосый, Петр Гланц
Язык : Russian
Default : Нет
Forced : Нет
Аудио #6
Идентификатор : 7
Формат : AC-3
Формат/Информация : Audio Coding 3
Расширение режима : CM (complete main)
Параметр Endianness формата : Big
Идентификатор кодека : A_AC3
Продолжительность : 1 ч. 56 м.
Вид битрейта : Постоянный
Битрейт : 384 Кбит/сек
Каналы : 6 каналов
Расположение каналов : Front: L C R, Side: L R, LFE
Частота : 48,0 КГц
Частота кадров : 31,250 кадров/сек (1536 spf)
Битовая глубина : 16 бит
Метод сжатия : С потерями
Размер потока : 321 Мбайт (5%)
Заголовок : Оригинал
Язык : English
Default : Нет
Forced : Нет
Текст #1
Идентификатор : 8
Формат : UTF-8
Идентификатор кодека : S_TEXT/UTF8
Идентификатор кодека/Информация : UTF-8 Plain Text
Язык : Russian
Default : Да
Forced : Нет
Текст #2
Идентификатор : 9
Формат : UTF-8
Идентификатор кодека : S_TEXT/UTF8
Идентификатор кодека/Информация : UTF-8 Plain Text
Язык : English
Default : Нет
Forced : Нет
Меню
00:00:00.000 : en:Opening Credits
00:07:37.000 : en:A New Identity
00:19:38.000 : en:The Transformation
00:27:37.000 : en:The Test
00:35:53.000 : en:Finding Jake
00:40:15.000 : en:Getting Serious About the Truth
00:45:45.000 : en:Welcome to Prague
00:49:10.000 : en:The Meeting
00:53:35.000 : en:Don't Cheat, Just Eat
01:06:28.000 : en:Checking Out the Merchandise
01:14:58.000 : en:Code Red
01:23:39.000 : en:Dangling a Worm on a Hook
01:26:59.000 : en:Julie's Abduction
01:31:55.000 : en:Moving the Pawn
01:38:04.000 : en:Grand Central Station
01:47:44.000 : en:Book of Forgotten Heroes/End Credits

Релиз от:

   Похожие торренты   Торрент   Размер 
В этой теме нет новых непрочитанных сообщений. Плохая компания / Bad Company (2001) WEBRip 1080p | D, P, A

5 | 0

11.04 ГБ

В этой теме нет новых непрочитанных сообщений. Компания Санты / Santa Company [Movie] (2014) BDRip 720p | CactusTeam

46 | 14

645.94 МБ

В этой теме нет новых непрочитанных сообщений. Титаник / Titanic (1997) BDRip 720p от R.G. HD-Films | 60 fps | D | A | Open Mate

2 | 4

21.16 ГБ

В этой теме нет новых непрочитанных сообщений. Плохая кровь / Плохая кровь: Лягушка-оборотень / Bad Blood: The Movie (2016) WEB-DL 1080p | L1

4 | 4

2.84 ГБ

В этой теме нет новых непрочитанных сообщений. Титаник / Titanic (1997) BDRip-HEVC 720p от R.G. HD-Films | 60 fps | Open mate

13 | 0

7.82 ГБ

В этой теме нет новых непрочитанных сообщений. Плохая кровь: Лягушка-оборотень / Bad Blood: The Movie (2016) WEBRip | L1

18 | 3

1.08 ГБ

В этой теме нет новых непрочитанных сообщений. Очень плохая училка / Bad Teacher (2011) BDRip 720p от HELLYWOOD | D, A, L1

24 | 3

7.76 ГБ




Вы не можете начинать темы
Вы не можете отвечать на сообщения
Вы не можете редактировать свои сообщения
Вы не можете удалять свои сообщения
Вы не можете добавлять вложения

Перейти:  
Контактная информация: rstracker[пёсик]yandex.ru
 Вход
ppkBB3cker v.2 © 2008-2014 @ PPK
[ Time : 0.037s | 16 Queries | GZIP : Off ]

cron