img image001 image001 image001 image001 image001 image001 image001 image001 image001 image001 image001 image001 image001 image001 image001

Planets Sun Sun Sun

COVID-19 - Последняя информация о коронавирусе на сайте Минздрава


Статистика раздачи
Автор: Nickolas3434 | Размер: 19.95 ГБ | Добавлен: 23 фев 2017
Раздают: 24    Качают: 14
Скачать торрент
Скачать торрент
Описание торрента

СообщениеДобавлено: 23 фев 2017 

Информация о фильме
Название: Гарри Поттер и Дары смерти
Оригинальное название: Harry Potter and the Deathly Hallows
Год выхода: 2010, 2011
Жанр: фэнтези, приключения
Режиссер: Дэвид Йэтс
В ролях: Дэниел Рэдклифф, Эмма Уотсон, Том Фелтон, Руперт Гринт, Бонни Райт, Алан Рикман, Рэйф Файнс, Хелена Бонем Картер, Майкл Гэмбон, Брендан Глисон, Джеральдин Сомервилль, Робби Колтрейн, Девон Мюррэй, Ник Моран, Джейсон Айзекс
О фильме:
Гарри Поттера ждёт самое страшное испытание в жизни — смертельная схватка с Волан-де-Мортом. Ждать помощи не от кого — Гарри одинок, как никогда… Друзья и враги Гарри предстают в совершенно неожиданном свете. Граница между Добром и Злом становится всё призрачнее… В грандиозной последней главе битва между добрыми и злыми силами мира волшебников перерастает во всеобщую войну. Ставки ещё никогда не были так высоки, а поиск убежища — столь сложен. И быть может именно Гарри Поттеру придется пожертвовать всем в финальном сражении с Волан-де-Мортом. Способен ли наш герой спасти мир? И всё закончится здесь.


Страна: США, Великобритания
Студия: Warner Bros. Pictures, Heyday Films
Продолжительность: 02:26:05 + 02:10:26
Перевод: Дубляж (Blu-ray EUR)
Файл
Кодек: H.265/HEVC
Качество: BDRip 1080p HEVC
Видео: Часть 1: 1920x2160 px, ~6876 kb/s (avg), 23,976 fps | Часть 2: 1920x2160 px, ~12,4 Mb/s (avg), 23,976 fps
Звук: Русский AC3, 640 kbps, 5.1 ch, 16 bits
Субтитры: Русские (forced hardsub 3D)
3D: Левый ракурс сверху
Семпл
Семпл
Часть 1:


Часть 2:

General
Unique ID : 197178115042292364683997367628130041583 (0x94571FA5270EC233956240C368763EEF)
Complete name : Harry Potter and the Deathly Hallows Part 1 (2010) 1080p HEVC 3D-ab.mkv
Format : Matroska
Format version : Version 3 / Version 2
File size : 7.83 GiB
Duration : 2 h 26 min
Overall bit rate : 7 669 kb/s
Movie name : Harry Potter and the Deathly Hallows Part 1 (2010) 3D Full-T&B (x265)
Encoded date : UTC 2017-02-23 06:38:38
Writing application : mkvmerge v9.8.0 ('Kuglblids') 64bit
Writing library : libebml v1.3.4 + libmatroska v1.4.5
Video
ID : 1
Format : HEVC
Format/Info : High Efficiency Video Coding
Format profile : Main 10@L5@High
MultiView_Count : 2
MultiView_Layout : Top-Bottom (left eye first)
Codec ID : V_MPEGH/ISO/HEVC
Duration : 2 h 26 min
Bit rate : 6 876 kb/s
Width : 1 920 pixels
Height : 2 160 pixels
Display aspect ratio : 0.889
Original display aspect ratio : 16:9
Frame rate mode : Constant
Frame rate : 23.976 (24000/1001) FPS
Color space : YUV
Chroma subsampling : 4:2:0
Bit depth : 10 bits
Bits/(Pixel*Frame) : 0.069
Stream size : 7.02 GiB (90%)
Title : 3D Full-T&B (x265)
Writing library : x265 2.2+36-9b975fec584a:[Windows][GCC 6.2.0][64 bit] 10bit
Encoding settings : cpuid=1050111 / frame-threads=3 / numa-pools=8 / wpp / no-pmode / no-pme / no-psnr / no-ssim / log-level=2 / input-csp=1 / input-res=1920x2160 / interlace=0 / total-frames=210155 / level-idc=50 / high-tier=1 / uhd-bd=0 / ref=1 / no-allow-non-conformance / no-repeat-headers / annexb / no-aud / no-hrd / info / hash=0 / no-temporal-layers / open-gop / min-keyint=23 / keyint=250 / bframes=4 / b-adapt=2 / b-pyramid / bframe-bias=0 / rc-lookahead=40 / lookahead-slices=2 / scenecut=40 / no-intra-refresh / ctu=32 / min-cu-size=8 / no-rect / no-amp / max-tu-size=16 / tu-inter-depth=1 / tu-intra-depth=1 / limit-tu=0 / rdoq-level=2 / dynamic-rd=4.00 / signhide / no-tskip / nr-intra=0 / nr-inter=0 / no-constrained-intra / no-strong-intra-smoothing / max-merge=2 / limit-refs=0 / no-limit-modes / me=3 / subme=7 / merange=25 / temporal-mvp / weightp / weightb / no-analyze-src-pics / no-deblock / no-sao / no-sao-non-deblock / rd=3 / early-skip / no-rskip / fast-intra / no-tskip-fast / no-cu-lossless / no-b-intra / rdpenalty=0 / psy-rd=3.00 / psy-rdoq=5.00 / no-rd-refine / analysis-mode=0 / no-lossless / cbqpoffs=0 / crqpoffs=0 / rc=crf / crf=24.0 / qcomp=0.80 / qpstep=1 / stats-write=0 / stats-read=0 / vbv-maxrate=100000 / vbv-bufsize=100000 / vbv-init=0.9 / crf-max=0.0 / crf-min=0.0 / ipratio=1.10 / pbratio=1.10 / aq-mode=3 / aq-strength=0.60 / no-cutree / zone-count=0 / no-strict-cbr / qg-size=16 / no-rc-grain / qpmax=51 / qpmin=0 / sar=16 / overscan=0 / videoformat=5 / range=0 / colorprim=1 / transfer=2 / colormatrix=2 / chromaloc=0 / display-window=0 / max-cll=0,0 / min-luma=0 / max-luma=1023 / log2-max-poc-lsb=8 / vui-timing-info / vui-hrd-info / slices=1 / opt-qp-pps / opt-ref-list-length-pps / no-multi-pass-opt-rps / scenecut-bias=0.05 / no-opt-cu-delta-qp / aq-motion / no-hdr
Language : Russian
Default : Yes
Forced : No
Color range : Limited
Color primaries : BT.709
Audio
ID : 2
Format : AC-3
Format/Info : Audio Coding 3
Mode extension : CM (complete main)
Format settings, Endianness : Big
Codec ID : A_AC3
Duration : 2 h 26 min
Bit rate mode : Constant
Bit rate : 640 kb/s
Channel(s) : 6 channels
Channel positions : Front: L C R, Side: L R, LFE
Sampling rate : 48.0 kHz
Frame rate : 31.250 FPS (1536 spf)
Bit depth : 16 bits
Compression mode : Lossy
Stream size : 669 MiB (8%)
Title : Russian (AC3 5.1 48KHz)
Language : Russian
Default : Yes
Forced : No
Menu
00:00:00.000 : :1 - 0:00:00
00:04:18.508 : :2 - 0:04:19
00:09:46.627 : :3 - 0:09:47
00:15:16.206 : :4 - 0:15:16
00:19:13.569 : :5 - 0:19:14
00:26:04.229 : :6 - 0:26:04
00:31:37.770 : :7 - 0:31:38
00:35:43.307 : :8 - 0:35:43
00:41:37.536 : :9 - 0:41:38
00:45:45.617 : :10 - 0:45:46
00:50:14.094 : :11 - 0:50:14
00:55:02.716 : :12 - 0:55:03
00:58:31.174 : :13 - 0:58:31
01:03:41.359 : :14 - 1:03:41
01:10:02.198 : :15 - 1:10:02
01:14:30.883 : :16 - 1:14:31
01:18:48.807 : :17 - 1:18:49
01:22:17.557 : :18 - 1:22:18
01:24:55.048 : :19 - 1:24:55
01:28:03.152 : :20 - 1:28:03
01:32:34.131 : :21 - 1:32:34
01:37:40.187 : :22 - 1:37:40
01:42:37.526 : :23 - 1:42:38
01:47:54.092 : :24 - 1:47:54
01:53:48.071 : :25 - 1:53:48
01:57:30.918 : :26 - 1:57:31
02:01:27.947 : :27 - 2:01:28
02:05:42.117 : :28 - 2:05:42
02:09:42.691 : :29 - 2:09:43
02:13:15.987 : :30 - 2:13:16
02:14:47.078 : :31 - 2:14:47
02:26:04.964 : :32 - 2:26:05

General
Unique ID : 244612667948471845977627866712323658160 (0xB806AFAAA9674D0FA891866F841C11B0)
Complete name : Harry Potter and the Deathly Hallows Part 2 (2011) 1080p HEVC 3D-ab.mkv
Format : Matroska
Format version : Version 3 / Version 2
File size : 12.1 GiB
Duration : 2 h 10 min
Overall bit rate : 13.3 Mb/s
Movie name : Harry Potter and the Deathly Hallows Part 2 (2011) 3D Full-T&B (x265)
Encoded date : UTC 2017-02-23 06:41:55
Writing application : mkvmerge v9.8.0 ('Kuglblids') 64bit
Writing library : libebml v1.3.4 + libmatroska v1.4.5
Video
ID : 1
Format : HEVC
Format/Info : High Efficiency Video Coding
Format profile : Main 10@L5@High
MultiView_Count : 2
MultiView_Layout : Top-Bottom (left eye first)
Codec ID : V_MPEGH/ISO/HEVC
Duration : 2 h 10 min
Bit rate : 12.4 Mb/s
Width : 1 920 pixels
Height : 2 160 pixels
Display aspect ratio : 0.889
Original display aspect ratio : 16:9
Frame rate mode : Constant
Frame rate : 23.976 (24000/1001) FPS
Color space : YUV
Chroma subsampling : 4:2:0
Bit depth : 10 bits
Bits/(Pixel*Frame) : 0.125
Stream size : 11.3 GiB (93%)
Title : 3D Full-T&B (x265)
Writing library : x265 2.2+36-9b975fec584a:[Windows][GCC 6.2.0][64 bit] 10bit
Encoding settings : cpuid=1050111 / frame-threads=3 / numa-pools=8 / wpp / no-pmode / no-pme / no-psnr / no-ssim / log-level=2 / input-csp=1 / input-res=1920x2160 / interlace=0 / total-frames=187659 / level-idc=50 / high-tier=1 / uhd-bd=0 / ref=1 / no-allow-non-conformance / no-repeat-headers / annexb / no-aud / no-hrd / info / hash=0 / no-temporal-layers / open-gop / min-keyint=23 / keyint=250 / bframes=4 / b-adapt=2 / b-pyramid / bframe-bias=0 / rc-lookahead=40 / lookahead-slices=2 / scenecut=40 / no-intra-refresh / ctu=32 / min-cu-size=8 / no-rect / no-amp / max-tu-size=16 / tu-inter-depth=1 / tu-intra-depth=1 / limit-tu=0 / rdoq-level=2 / dynamic-rd=4.00 / signhide / no-tskip / nr-intra=0 / nr-inter=0 / no-constrained-intra / no-strong-intra-smoothing / max-merge=2 / limit-refs=0 / no-limit-modes / me=3 / subme=7 / merange=25 / temporal-mvp / weightp / weightb / no-analyze-src-pics / no-deblock / no-sao / no-sao-non-deblock / rd=3 / early-skip / no-rskip / fast-intra / no-tskip-fast / no-cu-lossless / no-b-intra / rdpenalty=0 / psy-rd=3.00 / psy-rdoq=5.00 / no-rd-refine / analysis-mode=0 / no-lossless / cbqpoffs=0 / crqpoffs=0 / rc=crf / crf=24.0 / qcomp=0.80 / qpstep=1 / stats-write=0 / stats-read=0 / vbv-maxrate=100000 / vbv-bufsize=100000 / vbv-init=0.9 / crf-max=0.0 / crf-min=0.0 / ipratio=1.10 / pbratio=1.10 / aq-mode=3 / aq-strength=0.60 / no-cutree / zone-count=0 / no-strict-cbr / qg-size=16 / no-rc-grain / qpmax=51 / qpmin=0 / sar=16 / overscan=0 / videoformat=5 / range=0 / colorprim=1 / transfer=2 / colormatrix=2 / chromaloc=0 / display-window=0 / max-cll=0,0 / min-luma=0 / max-luma=1023 / log2-max-poc-lsb=8 / vui-timing-info / vui-hrd-info / slices=1 / opt-qp-pps / opt-ref-list-length-pps / no-multi-pass-opt-rps / scenecut-bias=0.05 / no-opt-cu-delta-qp / aq-motion / no-hdr
Language : Russian
Default : Yes
Forced : No
Color range : Limited
Color primaries : BT.709
Audio
ID : 2
Format : AC-3
Format/Info : Audio Coding 3
Mode extension : CM (complete main)
Format settings, Endianness : Big
Codec ID : A_AC3
Duration : 2 h 10 min
Bit rate mode : Constant
Bit rate : 640 kb/s
Channel(s) : 6 channels
Channel positions : Front: L C R, Side: L R, LFE
Sampling rate : 48.0 kHz
Frame rate : 31.250 FPS (1536 spf)
Bit depth : 16 bits
Compression mode : Lossy
Stream size : 597 MiB (5%)
Title : Russian (AC3 5.1 48KHz)
Language : Russian
Default : Yes
Forced : No
Menu
00:00:00.000 : :1 - 0:00:00
00:02:58.219 : :2 - 0:02:58
00:06:21.172 : :3 - 0:06:21
00:10:21.871 : :4 - 0:10:22
00:14:27.992 : :5 - 0:14:28
00:20:05.621 : :6 - 0:20:06
00:22:47.783 : :7 - 0:22:48
00:25:38.620 : :8 - 0:25:39
00:30:46.803 : :9 - 0:30:47
00:34:33.654 : :10 - 0:34:34
00:40:32.263 : :11 - 0:40:32
00:45:52.249 : :12 - 0:45:52
00:50:15.470 : :13 - 0:50:15
00:54:41.027 : :14 - 0:54:41
00:59:01.287 : :15 - 0:59:01
01:03:42.068 : :16 - 1:03:42
01:07:06.063 : :17 - 1:07:06
01:11:24.488 : :18 - 1:11:24
01:14:38.932 : :19 - 1:14:39
01:23:40.849 : :20 - 1:23:41
01:29:17.727 : :21 - 1:29:18
01:31:25.021 : :22 - 1:31:25
01:36:37.666 : :23 - 1:36:38
01:41:09.104 : :24 - 1:41:09
01:46:42.312 : :25 - 1:46:42
01:50:18.361 : :26 - 1:50:18
01:54:16.683 : :27 - 1:54:17
01:58:12.877 : :28 - 1:58:13
02:10:26.693 : :29 - 2:10:27

   Похожие торренты   Торрент   Размер 
В этой теме нет новых непрочитанных сообщений. Гарри Поттер и Дары смерти: Часть 1 / Harry Potter and the Deathly Hallows: Part 1 (2010) BDRemux 2160p | 4K | HDR | D, А

13 | 9

56.91 ГБ

В этой теме нет новых непрочитанных сообщений. Гарри Поттер и Дары смерти: Часть II / Harry Potter and the Deathly Hallows: Part 2 (2011) BDRemux 2160p | 4K | HDR | D, A

31 | 16

50.08 ГБ

В этой теме нет новых непрочитанных сообщений. Гарри Поттер: Коллекция / Harry Potter: Collection (2001-2011) BDRip-HEVC 1080p | D

103 | 53

46.91 ГБ

В этой теме нет новых непрочитанных сообщений. Гарри Поттер : Антология / Harry Potter : Antology (2001-2011) BDRip-AVC от R.G. HD-Films | 60 fps

575 | 228

31.63 ГБ

В этой теме нет новых непрочитанных сообщений. Гарри Поттер - Антология / Harry Potter - Anthology (2001-2011) PC | RePack от R.G. Catalyst

225 | 61

12.28 ГБ

В этой теме нет новых непрочитанных сообщений. Гарри Поттер и Кубок огня / Harry Potter and the Goblet of Fire (2005) WEB-DL 1080p | D, P2, A | Open Matte

36 | 4

19.43 ГБ

В этой теме нет новых непрочитанных сообщений. Гарри Поттер и Тайная комната / Harry Potter and the Chamber of Secrets (2002) WEB-DL 1080p | D, P, P2, A | Open Matte

32 | 3

17.14 ГБ




Вы не можете начинать темы
Вы не можете отвечать на сообщения
Вы не можете редактировать свои сообщения
Вы не можете удалять свои сообщения
Вы не можете добавлять вложения

Перейти:  
Контактная информация: rstracker[пёсик]yandex.ru
 Вход
ppkBB3cker v.2 © 2008-2014 @ PPK
[ Time : 0.022s | 18 Queries | GZIP : Off ]

cron