img image001 image001 image001 image001 image001 image001 image001 image001 image001 image001 image001 image001 image001 image001 image001

Planets Sun Sun Sun
Статистика раздачи
Автор: Nickolas3434 | Размер: 8.29 ГБ | Добавлен: 23 фев 2017
Раздают: 8    Качают: 2
Скачать торрент
Скачать торрент
Описание торрента

СообщениеДобавлено: 23 фев 2017 

Дэнни Цепной пёс / Danny The Dog / Unleashed
Страна: Франция Великобритания США
Производство: Canal+ [fr], Clubdeal Ltd., Current Entertainment, EuropaCorp. TF1 Films Production
Год выпуска: 2005
Жанр: боевик, триллер, драма, криминал
Продолжительность: 01:42:45
Режиссер: Луи Летерье
Автор сценария: Люк Бессон
В ролях: Джет Ли, Морган Фриман, Боб Хоскинс, Керри Кондон, Винсент Риган, Дилан Браун, Тамер Хассан, Майкл Дженн, Кэрол Энн Уилсон
Описание: Дэнни постоянно ходит в ошейнике, ест и спит в ошейнике, практически круглые сутки проводит в ошейнике. Именно так воспитал его Барт, гангстер из Глазго, который не брезгует никакими методами для достижения поставленных целей. Когда ему длительное время не отдают долг, у Барта лопается терпение и тогда он снимает с Дэнни ошейник. Именно в такие мгновения Дэнни превращается в настоящую собаку, в некую адскую смесь неудержимого боевого робота и жестокого зверя. Не нашлось ещё ни одного соперника, равного Дэнни в сражении. Парень не знает иной жизни, кроме смертельной битвы или полусонного существования в ошейнике. Но однажды Дэнни оказывается в доме слепого пианиста Сэма, где узнаёт, что есть жизнь, наполненная звуками и чувствами...

Перевод: Профессиональный (многоголосый) + 2х Профессиональный (двухголосый) + 2х Авторский (одноголосый) + Любительский (одноголосый)
Субтитры: русские (2 вида), английские (2 вида)

Качество: BDRip 720р | исходник DANNY_THE_DOG_BD_BLUEBIRD
Формат: МКV
Видео кодек: AVC
Аудио кодек: АС3
Видео: 1280x544 (2.35:1), 23.976 fps, MPEG-4 AVC ~7 830 kbps avg
Аудио №1: 48.0 kHz, AC3 Dolby Digital, 3/2 (L,C,R,l,r) + LFE ch, ~640 kbps | MVO / Superbit
Аудио №2: 48.0 kHz, AC3 Dolby Digital, 3/2 (L,C,R,l,r) + LFE ch, ~448 kbps | DVO / Tycoon
Аудио №3: 48.0 kHz, AC3 Dolby Digital, 3/2 (L,C,R,l,r) + LFE ch, ~448 kbps | DVO / CP Digital
Аудио №4: 48.0 kHz, AC3 Dolby Digital, 3/2 (L,C,R,l,r) + LFE ch, ~640 kbps | AVO / Михаил Чадов
Аудио №5: 48.0 kHz, AC3 Dolby Digital, 3/2 (L,C,R,l,r) + LFE ch, ~448 kbps | AVO / Андрей Гаврилов
Аудио №6: 48.0 kHz, AC3 Dolby Digital, 3/2 (L,C,R,l,r) + LFE ch, ~448 kbps | VO / Solod
Аудио №7: 48.0 kHz, AC3 Dolby Digital, 3/2 (L,C,R,l,r) + LFE ch, ~640 kbps | ENG
Формат субтитров: UTF-8 Plain Text
Бюджет: $45 000 000
Дата премьеры (мир): 2 февраля 2005

Unique ID : 214776802231545709804565600135011329774 (0xA19481EA0FC67624A32FBDF45C7366EE)
Complete name : Unleashed.2005.Unrated.720p.BluRay.6xRus.Eng.mkv
Format : Matroska
Format version : Version 4 / Version 2
File size : 8.29 GiB
Duration : 1 h 42 min
Overall bit rate : 11.5 Mb/s
Movie name : Дэнни Цепной пес / Danny the Dog / Unleashed (2005) [Unrated]
Encoded date : UTC 2017-02-22 09:06:03
Writing application : mkvmerge v9.9.0 ('Pick Up') 64bit
Writing library : libebml v1.3.4 + libmatroska v1.4.5
Cover : Yes
Attachments : cover.jpg / xlog.txt
Video
ID : 1
Format : AVC
Format/Info : Advanced Video Codec
Format profile : High@L4.1
Format settings, CABAC : Yes
Format settings, ReFrames : 12 frames
Codec ID : V_MPEG4/ISO/AVC
Duration : 1 h 42 min
Bit rate : 7 830 kb/s
Width : 1 280 pixels
Height : 544 pixels
Display aspect ratio : 2.35:1
Frame rate mode : Constant
Frame rate : 23.976 (24000/1001) FPS
Color space : YUV
Chroma subsampling : 4:2:0
Bit depth : 8 bits
Scan type : Progressive
Bits/(Pixel*Frame) : 0.469
Stream size : 5.62 GiB (68%)
Title : Дэнни Цепной пес / Danny the Dog / Unleashed (2005) [Unrated] BDRip 720p by Kasparas
Writing library : x264 core 148 r2744kMod b97ae06
Encoding settings : cabac=1 / ref=12 / deblock=1:-3:-3 / analyse=0x3:0x133 / me=umh / subme=11 / psy=1 / fade_compensate=0.00 / psy_rd=1.00:0.00 / mixed_ref=1 / me_range=32 / chroma_me=1 / trellis=2 / 8x8dct=1 / cqm=0 / deadzone=21,11 / fast_pskip=0 / chroma_qp_offset=-2 / threads=6 / lookahead_threads=1 / sliced_threads=0 / nr=0 / decimate=0 / interlaced=0 / bluray_compat=0 / constrained_intra=0 / bframes=10 / b_pyramid=2 / b_adapt=2 / b_bias=0 / direct=3 / weightb=1 / open_gop=0 / weightp=2 / keyint=250 / keyint_min=23 / scenecut=40 / intra_refresh=0 / rc_lookahead=60 / rc=crf / mbtree=0 / crf=17.2000 / qcomp=0.60 / qpmin=0 / qpmax=69 / qpstep=4 / vbv_maxrate=62500 / vbv_bufsize=78125 / crf_max=0.0 / nal_hrd=none / filler=0 / ip_ratio=1.40 / pb_ratio=1.30 / aq=3:0.80
Language : English
Default : Yes
Forced : No
Audio #1
ID : 2
Format : AC-3
Format/Info : Audio Coding 3
Mode extension : CM (complete main)
Format settings, Endianness : Big
Codec ID : A_AC3
Duration : 1 h 42 min
Bit rate mode : Constant
Bit rate : 640 kb/s
Channel(s) : 6 channels
Channel positions : Front: L C R, Side: L R, LFE
Sampling rate : 48.0 kHz
Frame rate : 31.250 FPS (1536 spf)
Bit depth : 16 bits
Compression mode : Lossy
Stream size : 470 MiB (6%)
Title : MVO, Superbit
Language : Russian
Default : Yes
Forced : No
Audio #2
ID : 3
Format : AC-3
Format/Info : Audio Coding 3
Mode extension : CM (complete main)
Format settings, Endianness : Big
Codec ID : A_AC3
Duration : 1 h 42 min
Bit rate mode : Constant
Bit rate : 448 kb/s
Channel(s) : 6 channels
Channel positions : Front: L C R, Side: L R, LFE
Sampling rate : 48.0 kHz
Frame rate : 31.250 FPS (1536 spf)
Bit depth : 16 bits
Compression mode : Lossy
Stream size : 329 MiB (4%)
Title : DVO, Tycoon
Language : Russian
Default : No
Forced : No
Audio #3
ID : 4
Format : AC-3
Format/Info : Audio Coding 3
Mode extension : CM (complete main)
Format settings, Endianness : Big
Codec ID : A_AC3
Duration : 1 h 42 min
Bit rate mode : Constant
Bit rate : 448 kb/s
Channel(s) : 6 channels
Channel positions : Front: L C R, Side: L R, LFE
Sampling rate : 48.0 kHz
Frame rate : 31.250 FPS (1536 spf)
Bit depth : 16 bits
Compression mode : Lossy
Stream size : 329 MiB (4%)
Title : DVO, CP Digital
Language : Russian
Default : No
Forced : No
Audio #4
ID : 5
Format : AC-3
Format/Info : Audio Coding 3
Mode extension : CM (complete main)
Format settings, Endianness : Big
Codec ID : A_AC3
Duration : 1 h 42 min
Bit rate mode : Constant
Bit rate : 640 kb/s
Channel(s) : 6 channels
Channel positions : Front: L C R, Side: L R, LFE
Sampling rate : 48.0 kHz
Frame rate : 31.250 FPS (1536 spf)
Bit depth : 16 bits
Compression mode : Lossy
Stream size : 470 MiB (6%)
Title : AVO, М. Чадов
Language : Russian
Default : No
Forced : No
Audio #5
ID : 6
Format : AC-3
Format/Info : Audio Coding 3
Mode extension : CM (complete main)
Format settings, Endianness : Big
Codec ID : A_AC3
Duration : 1 h 42 min
Bit rate mode : Constant
Bit rate : 448 kb/s
Channel(s) : 6 channels
Channel positions : Front: L C R, Side: L R, LFE
Sampling rate : 48.0 kHz
Frame rate : 31.250 FPS (1536 spf)
Bit depth : 16 bits
Compression mode : Lossy
Stream size : 329 MiB (4%)
Title : AVO, А. Гаврилов
Language : Russian
Default : No
Forced : No
Audio #6
ID : 7
Format : AC-3
Format/Info : Audio Coding 3
Mode extension : CM (complete main)
Format settings, Endianness : Big
Codec ID : A_AC3
Duration : 1 h 42 min
Bit rate mode : Constant
Bit rate : 448 kb/s
Channel(s) : 6 channels
Channel positions : Front: L C R, Side: L R, LFE
Sampling rate : 48.0 kHz
Frame rate : 31.250 FPS (1536 spf)
Bit depth : 16 bits
Compression mode : Lossy
Stream size : 329 MiB (4%)
Title : AVO, Solod
Language : Russian
Default : No
Forced : No
Audio #7
ID : 8
Format : AC-3
Format/Info : Audio Coding 3
Mode extension : CM (complete main)
Format settings, Endianness : Big
Codec ID : A_AC3
Duration : 1 h 42 min
Bit rate mode : Constant
Bit rate : 640 kb/s
Channel(s) : 6 channels
Channel positions : Front: L C R, Side: L R, LFE
Sampling rate : 48.0 kHz
Frame rate : 31.250 FPS (1536 spf)
Bit depth : 16 bits
Compression mode : Lossy
Stream size : 470 MiB (6%)
Language : English
Default : No
Forced : No
Text #1
ID : 9
Format : UTF-8
Codec ID : S_TEXT/UTF8
Codec ID/Info : UTF-8 Plain Text
Duration : 1 h 35 min
Bit rate : 77 b/s
Count of elements : 1126
Stream size : 54.0 KiB (0%)
Title : Superbit
Language : Russian
Default : No
Forced : No
Text #2
ID : 10
Format : UTF-8
Codec ID : S_TEXT/UTF8
Codec ID/Info : UTF-8 Plain Text
Duration : 1 h 35 min
Bit rate : 77 b/s
Count of elements : 1129
Stream size : 54.4 KiB (0%)
Title : CP Digital
Language : Russian
Default : No
Forced : No
Text #3
ID : 11
Format : UTF-8
Codec ID : S_TEXT/UTF8
Codec ID/Info : UTF-8 Plain Text
Duration : 1 h 32 min
Bit rate : 49 b/s
Count of elements : 1127
Stream size : 33.6 KiB (0%)
Title : #1
Language : English
Default : No
Forced : No
Text #4
ID : 12
Format : UTF-8
Codec ID : S_TEXT/UTF8
Codec ID/Info : UTF-8 Plain Text
Duration : 1 h 32 min
Bit rate : 47 b/s
Count of elements : 1127
Stream size : 32.3 KiB (0%)
Title : #2
Language : English
Default : No
Forced : No
Menu
00:00:00.000 : en:Attaboy! (Main Titles)
00:05:37.545 : en:Daily Rounds
00:09:15.096 : en:Get 'Em!
00:13:18.506 : en:Out of Tune
00:20:33.106 : en:Lucrative Proposition
00:25:00.207 : en:One Lovely Day
00:27:27.062 : en:Strange Surroundings
00:31:56.706 : en:Opportunity to Learn
00:36:01.367 : en:"Ripe Means Sweet"
00:41:50.716 : en:"Sweet is Good"
00:47:50.409 : en:Asking Questions
00:51:41.473 : en:Part of the Family
00:56:04.903 : en:Look Who's Come Home
01:00:29.751 : en:No More Killing!
01:08:18.385 : en:Families Stick Together
01:14:11.822 : en:Remembering the Past
01:19:59.336 : en:No Time
01:26:22.218 : en:You're My Dog!
01:33:48.247 : en:Saved by Music
01:35:48.033 : en:End Titles



   Похожие торренты   Торрент   Размер 
В этой теме нет новых непрочитанных сообщений. Дэнни цепной пёс / Unleashed / Danny The Dog [Версия без купюр / UNRATED] (2005) BDRip от HQCLUB

732 | 13

2.18 ГБ

В этой теме нет новых непрочитанных сообщений. Дэнни цепной пес / Danny the Dog / Unleashed (2005) BDRip 720p

50 | 7

3.4 ГБ

В этой теме нет новых непрочитанных сообщений. Дэнни Цепной пес / Danny the Dog (2005) BDRip 1080p | P, P2 | Расширенная версия / Unrated

29 | 7

12.95 ГБ

В этой теме нет новых непрочитанных сообщений. Дэнни Цепной пёс / Unleashed (2005) BDRip-AVC от ExKinoRay | Unrated | P

93 | 1

744.63 МБ

В этой теме нет новых непрочитанных сообщений. Дэнни - цепной пёс / Unleashed / Danny The Dog (2005) HDRip

12 | 4

746.28 МБ

В этой теме нет новых непрочитанных сообщений. Дэнни-цепной пес / Unleashed / Danny the Dog (2005) HDRip от Scarabey | Р2

158 | 6

744.71 МБ

В этой теме нет новых непрочитанных сообщений. Дэнни Цепной пес / Danny The Dog (2005) BDRip (AVC) от Kinobomond

66 | 12

2.19 ГБ




Вы не можете начинать темы
Вы не можете отвечать на сообщения
Вы не можете редактировать свои сообщения
Вы не можете удалять свои сообщения
Вы не можете добавлять вложения

Перейти:  
Для Мосгорсуда, Роскомнадзора и рекламодателей: mosgorsud-torrent[собачка]yandex.ru
cron
 Вход
ppkBB3cker v.2 © 2008-2014 @ PPK
[ Time : 0.039s | 18 Queries | GZIP : Off ]

cron