img image001 image001 image001 image001 image001 image001 image001 image001 image001 image001 image001 image001 image001 image001 image001

Planets Sun Sun Sun

COVID-19 - Последняя информация о коронавирусе на сайте Минздрава


Статистика раздачи
Автор: Nickolas3434 | Размер: 2.16 ГБ | Добавлен: 27 фев 2017
Раздают: 22    Качают: 0
Скачать торрент
Скачать торрент
Описание торрента

СообщениеДобавлено: 27 фев 2017 

Уличный кот по кличке Боб
A Street Cat Named Bob
«Sometimes it takes nine lives to save one»


Страна: Великобритания
Жанр: драма, комедия, семейный, биография
Год выпуска: 2016
Продолжительность: 01:42:48
Перевод: Профессиональный (многоголосый, закадровый) [Blu-ray CEE]
Cубтитры: русские (форсированные, полные), английские (полные)
Оригинальная аудиодорожка: английский
Режиссер: Роджер Споттисвуд / Roger Spottiswoode
В ролях: Люк Тредэвэй, Bob the Cat, Рута Гедминтас, Джоанн Фроггатт, Энтони Хэд, Даррен Эванс, Тони Джайавардена, Адам Ричез, Льюэлла Гидеон, Лоррейн Эшборн, Акбар Курта, Джон Хеншоу
Описание:
Рассказ о том, как Джеймс Боуэн, восстанавливающийся от наркотической зависимости уличный музыкант, встретил рыжего уличного кота и его жизнь изменилась в лучшую сторону.

Релиз:
Автор рипа: stalkerok
Сэмпл
Качество видео: BDRip-AVC [A.Street.Cat.Named.Bob.2016.1080p.BluRay.AVC.DTS-HD.MA.5.1-FGT]
Формат видео: MKV
Видео кодек: AVC
Аудио кодек: AC3
Видео: 2108 Кбит/сек, 1076*450 (2,40:1), в 23,976 (24000/1001) кадра/сек, AVC
Аудио #1: русский, 448 Кбит/сек, 48,0 КГц, 6 каналов, AC-3
Аудио #2: английский, 448 Кбит/сек, 48,0 КГц, 6 каналов, AC-3
Навигация по главам: есть

x264 [info]: frame I:1346 Avg QP:17.71 size: 54205
x264 [info]: frame P:34444 Avg QP:19.25 size: 21440
x264 [info]: frame B:112094 Avg QP:21.56 size: 7260
Общее
Уникальный идентификатор : 191963347182094934531076970406139262923 (0x906ACBBD3CB6CE93A16A755C7251F7CB)
Полное имя : M:!!!!!!!!!!!!!!!!!!!A Street Cat Named Bob (2016)A.Street.Cat.Named.Bob.2016.BDRip-AVC.RUS.ENG.stalkerok.new-team.mkv
Формат : Matroska
Версия формата : Version 4 / Version 2
Размер файла : 2,16 Гбайт
Продолжительность : 1 ч. 42 м.
Общий поток : 3006 Кбит/сек
Название фильма : A Street Cat Named Bob (2016) (Rip by stalkerok)
Дата кодирования : UTC 2017-02-26 16:38:03
Программа кодирования : mkvmerge v8.6.1 ('Flying') 64bit
Библиотека кодирования : libebml v1.3.3 + libmatroska v1.4.4
Видео
Идентификатор : 1
Формат : AVC
Формат/Информация : Advanced Video Codec
Профиль формата : High@L4.1
Параметр CABAC формата : Да
Параметр ReFrames формата : 12 кадров
Идентификатор кодека : V_MPEG4/ISO/AVC
Продолжительность : 1 ч. 42 м.
Битрейт : 2108 Кбит/сек
Ширина : 1076 пикселей
Высота : 450 пикселей
Соотношение сторон : 2,40:1
Соотношение сторон в оригинале : 2,40:1
Режим частоты кадров : Постоянный
Частота кадров : 23,976 (24000/1001) кадра/сек
Цветовое пространство : YUV
Субдискретизация насыщенности : 4:2:0
Битовая глубина : 8 бит
Тип развёртки : Прогрессивная
Бит/(Пиксели*Кадры) : 0.182
Размер потока : 1,51 Гбайт (70%)
Заголовок : A Street Cat Named Bob (2016) (Rip by stalkerok)
Библиотека кодирования : x264 core 148 r2705+54 9f484c1 t_mod_Custom [8-bit@all X86_64]
Настройки программы : cabac=1 / ref=12 / deblock=1:-3:-2 / analyse=0x3:0x133 / me=umh / subme=10 / psy=1 / fade_compensate=0.00 / psy_rd=1.00:0.00 / mixed_ref=1 / me_range=32 / chroma_me=1 / trellis=2 / 8x8dct=1 / cqm=0 / deadzone=21,11 / fast_pskip=0 / chroma_qp_offset=-2 / threads=12 / lookahead_threads=3 / sliced_threads=0 / nr=0 / decimate=1 / interlaced=0 / bluray_compat=0 / constrained_intra=0 / fgo=0 / bframes=13 / b_pyramid=2 / b_adapt=2 / b_bias=0 / direct=3 / weightb=1 / open_gop=0 / weightp=2 / keyint=240 / keyint_min=23 / scenecut=40 / intra_refresh=0 / rc_lookahead=60 / rc=crf / mbtree=0 / crf=19.1500 / qcomp=0.65 / qpmin=0:0:0 / qpmax=69:69:69 / qpstep=4 / vbv_maxrate=50000 / vbv_bufsize=62500 / crf_max=0.0 / nal_hrd=none / filler=0 / ip_ratio=1.40 / pb_ratio=1.30 / aq=3:0.90 / aq-sensitivity=10.00 / aq-factor=1.00:1.00:1.00 / aq2=0 / aq3=0
Default : Да
Forced : Нет
Аудио #1
Идентификатор : 2
Формат : AC-3
Формат/Информация : Audio Coding 3
Расширение режима : CM (complete main)
Параметр Endianness формата : Big
Идентификатор кодека : A_AC3
Продолжительность : 1 ч. 42 м.
Вид битрейта : Постоянный
Битрейт : 448 Кбит/сек
Каналы : 6 каналов
Расположение каналов : Front: L C R, Side: L R, LFE
Частота : 48,0 КГц
Частота кадров : 31,250 кадров/сек (1536 spf)
Метод сжатия : С потерями
Размер потока : 329 Мбайт (15%)
Язык : Russian
Default : Да
Forced : Нет
Аудио #2
Идентификатор : 3
Формат : AC-3
Формат/Информация : Audio Coding 3
Расширение режима : CM (complete main)
Параметр Endianness формата : Big
Идентификатор кодека : A_AC3
Продолжительность : 1 ч. 42 м.
Вид битрейта : Постоянный
Битрейт : 448 Кбит/сек
Каналы : 6 каналов
Расположение каналов : Front: L C R, Side: L R, LFE
Частота : 48,0 КГц
Частота кадров : 31,250 кадров/сек (1536 spf)
Метод сжатия : С потерями
Размер потока : 329 Мбайт (15%)
Заголовок : Original | DD 5.1 @ 448 kbps
Язык : English
Default : Нет
Forced : Нет
Текст #1
Идентификатор : 4
Формат : UTF-8
Идентификатор кодека : S_TEXT/UTF8
Идентификатор кодека/Информация : UTF-8 Plain Text
Продолжительность : 1 ч. 41 м.
Битрейт : 1 бит/сек
Count of elements : 19
Размер потока : 857 байт (0%)
Заголовок : Forced
Язык : Russian
Default : Да
Forced : Нет
Текст #2
Идентификатор : 5
Формат : UTF-8
Идентификатор кодека : S_TEXT/UTF8
Идентификатор кодека/Информация : UTF-8 Plain Text
Продолжительность : 1 ч. 41 м.
Битрейт : 80 бит/сек
Count of elements : 1116
Размер потока : 60,3 Кбайт (0%)
Заголовок : Blu-ray
Язык : Russian
Default : Нет
Forced : Нет
Текст #3
Идентификатор : 6
Формат : UTF-8
Идентификатор кодека : S_TEXT/UTF8
Идентификатор кодека/Информация : UTF-8 Plain Text
Продолжительность : 1 ч. 36 м.
Битрейт : 57 бит/сек
Count of elements : 1385
Размер потока : 40,7 Кбайт (0%)
Заголовок : Blu-ray
Язык : English
Default : Нет
Forced : Нет
Меню
00:00:00.000 : en:Chapter 1
00:06:55.164 : en:Chapter 2
00:11:37.071 : en:Chapter 3
00:18:52.881 : en:Chapter 4
00:28:30.250 : en:Chapter 5
00:31:36.895 : en:Chapter 6
00:37:52.061 : en:Chapter 7
00:45:03.242 : en:Chapter 8
00:49:39.810 : en:Chapter 9
00:54:35.063 : en:Chapter 10
01:03:16.000 : en:Chapter 11
01:07:13.821 : en:Chapter 12
01:11:18.774 : en:Chapter 13
01:19:17.502 : en:Chapter 14
01:27:15.897 : en:Chapter 15
01:34:30.665 : en:Chapter 16



   Похожие торренты   Торрент   Размер 
В этой теме нет новых непрочитанных сообщений. Уличный кот по кличке Боб / A Street Cat Named Bob (2016) BDRip-AVC от New-Team | Лицензия

19 | 5

1.44 ГБ

В этой теме нет новых непрочитанных сообщений. Уличный кот по кличке Боб / A Street Cat Named Bob (2016) BDRip-AVC от New-Team | Лицензия

19 | 1

745.93 МБ

В этой теме нет новых непрочитанных сообщений. Уличный кот по кличке Боб / A Street Cat Named Bob (2016) BDRip 720p от New-Team | Лицензия

20 | 1

4.59 ГБ

В этой теме нет новых непрочитанных сообщений. Уличный кот по кличке Боб / A Street Cat Named Bob (2016) BDRip-AVC от ExKinoRay | Лицензия

35 | 5

1.46 ГБ

В этой теме нет новых непрочитанных сообщений. Уличный кот по кличке Боб / A Street Cat Named Bob (2016) BDRip-AVC от HELLYWOOD | Лицензия

89 | 4

2.18 ГБ

В этой теме нет новых непрочитанных сообщений. Уличный кот по кличке Боб / A Street Cat Named Bob (2016) BDRip 1080p | Лицензия

125 | 16

10.92 ГБ

В этой теме нет новых непрочитанных сообщений. Уличный кот по кличке Боб / A Street Cat Named Bob (2016) BDRip от ExKinoRay | Лицензия

90 | 4

1.46 ГБ




Вы не можете начинать темы
Вы не можете отвечать на сообщения
Вы не можете редактировать свои сообщения
Вы не можете удалять свои сообщения
Вы не можете добавлять вложения

Перейти:  
Контактная информация: rstracker[пёсик]yandex.ru
 Вход
ppkBB3cker v.2 © 2008-2014 @ PPK
[ Time : 0.025s | 18 Queries | GZIP : Off ]

cron