img image001 image001 image001 image001 image001 image001 image001 image001 image001 image001 image001 image001 image001 image001 image001

Planets Sun Sun Sun
Статистика раздачи
Автор: Nickolas3434 | Размер: 10.79 ГБ | Добавлен: 06 мар 2017
Раздают: 12    Качают: 4
Скачать торрент
Скачать торрент
Описание торрента

СообщениеДобавлено: 06 мар 2017 

Информация о фильме
Название: Сотни улиц
Оригинальное название: 100 Streets
Год выхода: 2016
Жанр: Драма
Режиссер: Джим О’Хенлон
В ролях: Идрис Эльба, Джемма Артертон, Том Каллен, Франц Драмех, Райан Гейдж, Кен Стотт, Кирстон Вэрэйнг, Чарли Крид-Майлз, Эшли Томас, Марк Фрост
О фильме:
На сотне лондонских улиц разворачиваются четыре истории о героях, живущих разной жизнью – в роскоши или в повседневной «мясорубке». Богатый плейбой и охранник, молодой наркоторговец и стареющий актер, бывший спортсмен и таксист, – их пути пересекутся перед лицом серьезных перемен.

Страна: Великобритания
Студия: CrossDay Productions Ltd, Green Door Pictures, Kreo Films FZ, West Fiction Films, What's the Story
Продолжительность: 01:33:31
Перевод: Профессиональный многоголосый (закадровый) | iTunes
Файл
Качество: BDRip 1080p
Видео: MPEG-4 AVC, 1920x804, 14.6 Mbit/s, 23.976 fps
Звук:
Аудио #01: 48 kHz, AC3, 5.1, 384 Kbps | Профессиональный многоголосый (закадровый) |
Аудио #02: 48 kHz, DTS, 5.1, 1510 kbps | Оригинал |
Субтитры: Английские
General
Unique ID : 201612815483944903147063538673628285782 (0x97AD37420776167587232D98D3E90B56)
Complete name : F:Video100.Streets.2016.BDRip.1080p.ExKinoRay.mkv
Format : Matroska
Format version : Version 4 / Version 2
File size : 10.8 GiB
Duration : 1 h 33 min
Overall bit rate : 16.5 Mb/s
Encoded date : UTC 2017-03-05 22:33:11
Writing application : mkvmerge v8.3.0 ('Over the Horizon') 64bit
Writing library : libebml v1.3.1 + libmatroska v1.4.2
Video
ID : 1
Format : AVC
Format/Info : Advanced Video Codec
Format profile : High@L4.1
Format settings, CABAC : Yes
Format settings, ReFrames : 5 frames
Codec ID : V_MPEG4/ISO/AVC
Duration : 1 h 33 min
Bit rate : 14.6 Mb/s
Width : 1 920 pixels
Height : 804 pixels
Display aspect ratio : 2.40:1
Frame rate mode : Constant
Frame rate : 23.976 (24000/1001) FPS
Color space : YUV
Chroma subsampling : 4:2:0
Bit depth : 8 bits
Scan type : Progressive
Bits/(Pixel*Frame) : 0.396
Stream size : 9.55 GiB (89%)
Writing library : x264 core 142 r2431+42 c69a006 tMod [8-bit@all X86_64]
Encoding settings : cabac=1 / ref=5 / deblock=1:-3:-3 / analyse=0x3:0x113 / me=umh / subme=11 / psy=1 / fade_compensate=0.00 / psy_rd=1.05:1.00 / mixed_ref=1 / me_range=48 / chroma_me=1 / trellis=2 / 8x8dct=1 / cqm=0 / deadzone=21,11 / fast_pskip=0 / chroma_qp_offset=-4 / threads=16 / lookahead_threads=2 / sliced_threads=0 / nr=0 / decimate=0 / interlaced=0 / bluray_compat=0 / constrained_intra=0 / fgo=0 / bframes=8 / b_pyramid=2 / b_adapt=2 / b_bias=0 / direct=3 / weightb=1 / open_gop=0 / weightp=2 / keyint=240 / keyint_min=23 / scenecut=40 / intra_refresh=0 / rc_lookahead=150 / rc=2pass / mbtree=0 / bitrate=14650 / ratetol=1.0 / qcomp=0.60 / qpmin=0:0:0 / qpmax=69:69:69 / qpstep=4 / cplxblur=20.0 / qblur=0.5 / vbv_maxrate=62500 / vbv_bufsize=78125 / nal_hrd=none / filler=0 / ip_ratio=1.30 / pb_ratio=1.20 / aq=2:0.80 / aq-sensitivity=10.00 / aq-factor=1.00:1.00:1.00 / aq2=0 / aq3=0
Language : English
Default : Yes
Forced : No
Color range : Limited
Color primaries : BT.709
Transfer characteristics : BT.709
Matrix coefficients : BT.709
Audio #1
ID : 2
Format : AC-3
Format/Info : Audio Coding 3
Mode extension : CM (complete main)
Format settings, Endianness : Big
Codec ID : A_AC3
Duration : 1 h 33 min
Bit rate mode : Constant
Bit rate : 384 kb/s
Channel(s) : 6 channels
Channel positions : Front: L C R, Side: L R, LFE
Sampling rate : 48.0 kHz
Frame rate : 31.250 FPS (1536 spf)
Bit depth : 16 bits
Compression mode : Lossy
Stream size : 257 MiB (2%)
Title : iTunes
Language : Russian
Default : Yes
Forced : No
Audio #2
ID : 3
Format : DTS
Format/Info : Digital Theater Systems
Mode : 16
Format settings, Endianness : Big
Codec ID : A_DTS
Duration : 1 h 33 min
Bit rate mode : Constant
Bit rate : 1 509 kb/s
Channel(s) : 6 channels
Channel positions : Front: L C R, Side: L R, LFE
Sampling rate : 48.0 kHz
Frame rate : 93.750 FPS (512 spf)
Bit depth : 24 bits
Compression mode : Lossy
Stream size : 1 009 MiB (9%)
Title : Original
Language : English
Default : No
Forced : No
Text #1
ID : 4
Format : UTF-8
Codec ID : S_TEXT/UTF8
Codec ID/Info : UTF-8 Plain Text
Duration : 1 h 27 min
Bit rate : 55 b/s
Count of elements : 1121
Stream size : 35.5 KiB (0%)
Title : Full
Language : English
Default : No
Forced : No
Text #2
ID : 5
Format : UTF-8
Codec ID : S_TEXT/UTF8
Codec ID/Info : UTF-8 Plain Text
Duration : 1 h 30 min
Bit rate : 63 b/s
Count of elements : 1312
Stream size : 41.6 KiB (0%)
Title : SDH
Language : English
Default : No
Forced : No
Menu
00:00:00.000 : en:Chapter 01
00:08:32.094 : en:Chapter 02
00:14:37.543 : en:Chapter 03
00:18:49.044 : en:Chapter 04
00:23:51.721 : en:Chapter 05
00:30:44.884 : en:Chapter 06
00:38:31.100 : en:Chapter 07
00:44:19.948 : en:Chapter 08
00:49:03.649 : en:Chapter 09
00:52:47.581 : en:Chapter 10
00:58:32.634 : en:Chapter 11
01:04:07.176 : en:Chapter 12
01:08:39.406 : en:Chapter 13
01:12:21.211 : en:Chapter 14
01:17:32.939 : en:Chapter 15
01:23:29.754 : en:Chapter 16


Релиз от: Автор релиза:



   Похожие торренты   Торрент   Размер 
В этой теме нет новых непрочитанных сообщений. Сотни улиц / 100 Streets / A Hundred Streets (2016) BDRemux 1080p от ExKinoRay | iTunes

36 | 13

18.02 ГБ

В этой теме нет новых непрочитанных сообщений. Сотни улиц / 100 Streets / A Hundred Streets (2016) BDRip от ExKinoRay | iTunes

11 | 0

1.42 ГБ

В этой теме нет новых непрочитанных сообщений. Сотни улиц / 100 Streets / A Hundred Streets (2016) BDRip 720p от ExKinoRay | iTunes

5 | 3

5.77 ГБ

В этой теме нет новых непрочитанных сообщений. Сотни улиц / 100 Streets / A Hundred Streets (2016) Blu-ray 1080p | iTunes

20 | 3

21.15 ГБ

В этой теме нет новых непрочитанных сообщений. Сотни улиц / 100 Streets / A Hundred Streets (2016) BDRip от MegaPeer | iTunes

60 | 16

745.77 МБ

В этой теме нет новых непрочитанных сообщений. Сотни улиц / 100 Streets / A Hundred Streets (2016) WEB-DLRip | L2

69 | 1

1.37 ГБ

В этой теме нет новых непрочитанных сообщений. Сотни улиц / A Hundred Streets (2016) BDRip от MegaPeer | iTunes

182 | 62

1.42 ГБ




Вы не можете начинать темы
Вы не можете отвечать на сообщения
Вы не можете редактировать свои сообщения
Вы не можете удалять свои сообщения
Вы не можете добавлять вложения

Перейти:  
Для Мосгорсуда, Роскомнадзора и рекламодателей: mosgorsud-torrent[собачка]yandex.ru
 Вход
ppkBB3cker v.2 © 2008-2014 @ PPK
[ Time : 0.045s | 19 Queries | GZIP : Off ]

cron