img image001 image001 image001 image001 image001 image001 image001 image001 image001 image001 image001 image001 image001 image001 image001 image001

Planets Sun Sun Sun
Статистика раздачи
Автор: Nickolas3434 | Размер: 18.02 ГБ | Добавлен: 06 мар 2017
Раздают: 36    Качают: 13
Скачать торрент
Скачать торрент
Описание торрента

СообщениеДобавлено: 06 мар 2017 

Информация о фильме
Название: Сотни улиц
Оригинальное название: 100 Streets
Год выхода: 2016
Жанр: Драма
Режиссер: Джим О’Хенлон
В ролях: Идрис Эльба, Джемма Артертон, Том Каллен, Франц Драмех, Райан Гейдж, Кен Стотт, Кирстон Вэрэйнг, Чарли Крид-Майлз, Эшли Томас, Марк Фрост
О фильме:
На сотне лондонских улиц разворачиваются четыре истории о героях, живущих разной жизнью – в роскоши или в повседневной «мясорубке». Богатый плейбой и охранник, молодой наркоторговец и стареющий актер, бывший спортсмен и таксист, – их пути пересекутся перед лицом серьезных перемен.

Страна: Великобритания
Студия: CrossDay Productions Ltd, Green Door Pictures, Kreo Films FZ, West Fiction Films, What's the Story
Продолжительность: 01:33:31
Перевод: Профессиональный многоголосый (закадровый) | iTunes
Файл
Качество: BDRemux 1080p
Видео: MPEG-4 AVC, 1920x1080, 24.7 Mbit/s, 23.976 fps
Звук:
Аудио #01: 48 kHz, AC3, 5.1, 384 Kbps | Профессиональный многоголосый (закадровый) |
Аудио #02: 48 kHz, DTS-HD MA, 5.1, 2458 kbps | Оригинал |
Субтитры: Русские (full, forced), английские
General
Unique ID : 243245791492736893733419732827380451385 (0xB6FF6F744A6426DCAF245832BA090839)
Complete name : F:Video100.Streets.2016.BDREMUX.1080p.ExKinoRay.mkv
Format : Matroska
Format version : Version 4 / Version 2
File size : 18.0 GiB
Duration : 1 h 33 min
Overall bit rate mode : Variable
Overall bit rate : 27.6 Mb/s
Encoded date : UTC 2017-03-06 05:30:47
Writing application : mkvmerge v8.3.0 ('Over the Horizon') 64bit
Writing library : libebml v1.3.1 + libmatroska v1.4.2
Video
ID : 1
Format : AVC
Format/Info : Advanced Video Codec
Format profile : High@L4.1
Format settings, CABAC : Yes
Format settings, ReFrames : 4 frames
Codec ID : V_MPEG4/ISO/AVC
Duration : 1 h 33 min
Bit rate mode : Variable
Bit rate : 24.7 Mb/s
Maximum bit rate : 33.0 Mb/s
Width : 1 920 pixels
Height : 1 080 pixels
Display aspect ratio : 16:9
Frame rate mode : Constant
Frame rate : 23.976 (24000/1001) FPS
Color space : YUV
Chroma subsampling : 4:2:0
Bit depth : 8 bits
Scan type : Progressive
Bits/(Pixel*Frame) : 0.498
Stream size : 16.2 GiB (90%)
Language : English
Default : Yes
Forced : No
Audio #1
ID : 2
Format : AC-3
Format/Info : Audio Coding 3
Mode extension : CM (complete main)
Format settings, Endianness : Big
Codec ID : A_AC3
Duration : 1 h 33 min
Bit rate mode : Constant
Bit rate : 384 kb/s
Channel(s) : 6 channels
Channel positions : Front: L C R, Side: L R, LFE
Sampling rate : 48.0 kHz
Frame rate : 31.250 FPS (1536 spf)
Bit depth : 16 bits
Compression mode : Lossy
Stream size : 257 MiB (1%)
Title : iTunes
Language : Russian
Default : Yes
Forced : No
Audio #2
ID : 3
Format : DTS
Format/Info : Digital Theater Systems
Format profile : MA / Core
Mode : 16
Format settings, Endianness : Big
Codec ID : A_DTS
Duration : 1 h 33 min
Bit rate mode : Variable / Constant
Bit rate : 2 458 kb/s / 1 509 kb/s
Channel(s) : 6 channels
Channel positions : Front: L C R, Side: L R, LFE
Sampling rate : 48.0 kHz
Frame rate : 93.750 FPS (512 spf)
Bit depth : 24 bits
Compression mode : Lossless / Lossy
Stream size : 1.61 GiB (9%)
Title : Original
Language : English
Default : No
Forced : No
Text #1
ID : 4
Format : UTF-8
Codec ID : S_TEXT/UTF8
Codec ID/Info : UTF-8 Plain Text
Duration : 1 h 21 min
Bit rate : 2 b/s
Count of elements : 39
Stream size : 1.60 KiB (0%)
Title : Forced
Language : Russian
Default : Yes
Forced : No
Text #2
ID : 5
Format : UTF-8
Codec ID : S_TEXT/UTF8
Codec ID/Info : UTF-8 Plain Text
Duration : 1 h 33 min
Bit rate : 78 b/s
Count of elements : 948
Stream size : 53.9 KiB (0%)
Title : Full
Language : Russian
Default : No
Forced : No
Text #3
ID : 6
Format : UTF-8
Codec ID : S_TEXT/UTF8
Codec ID/Info : UTF-8 Plain Text
Duration : 1 h 27 min
Bit rate : 55 b/s
Count of elements : 1121
Stream size : 35.5 KiB (0%)
Title : Full
Language : English
Default : No
Forced : No
Text #4
ID : 7
Format : UTF-8
Codec ID : S_TEXT/UTF8
Codec ID/Info : UTF-8 Plain Text
Duration : 1 h 30 min
Bit rate : 63 b/s
Count of elements : 1312
Stream size : 41.6 KiB (0%)
Title : SDH
Language : English
Default : No
Forced : No
Menu
00:00:00.000 : en:Chapter 01
00:08:32.094 : en:Chapter 02
00:14:37.543 : en:Chapter 03
00:18:49.044 : en:Chapter 04
00:23:51.721 : en:Chapter 05
00:30:44.884 : en:Chapter 06
00:38:31.100 : en:Chapter 07
00:44:19.948 : en:Chapter 08
00:49:03.649 : en:Chapter 09
00:52:47.581 : en:Chapter 10
00:58:32.634 : en:Chapter 11
01:04:07.176 : en:Chapter 12
01:08:39.406 : en:Chapter 13
01:12:21.211 : en:Chapter 14
01:17:32.939 : en:Chapter 15
01:23:29.754 : en:Chapter 16


Релиз от: Автор релиза:



   Похожие торренты   Торрент   Размер 
В этой теме нет новых непрочитанных сообщений. Сотни улиц / 100 Streets / A Hundred Streets (2016) BDRip 1080p от ExKinoRay | iTunes

12 | 4

10.79 ГБ

В этой теме нет новых непрочитанных сообщений. Сотни улиц / 100 Streets / A Hundred Streets (2016) BDRip от ExKinoRay | iTunes

3 | 0

1.42 ГБ

В этой теме нет новых непрочитанных сообщений. Сотни улиц / 100 Streets / A Hundred Streets (2016) BDRip 720p от ExKinoRay | iTunes

3 | 1

5.77 ГБ

В этой теме нет новых непрочитанных сообщений. Сотни улиц / 100 Streets / A Hundred Streets (2016) Blu-ray 1080p | iTunes

20 | 3

21.15 ГБ

В этой теме нет новых непрочитанных сообщений. Сотни улиц / 100 Streets / A Hundred Streets (2016) BDRip от MegaPeer | iTunes

60 | 16

745.77 МБ

В этой теме нет новых непрочитанных сообщений. Сотни улиц / 100 Streets / A Hundred Streets (2016) WEB-DLRip | L2

69 | 1

1.37 ГБ

В этой теме нет новых непрочитанных сообщений. Сотни улиц / A Hundred Streets (2016) BDRip от MegaPeer | iTunes

148 | 55

1.42 ГБ




Вы не можете начинать темы
Вы не можете отвечать на сообщения
Вы не можете редактировать свои сообщения
Вы не можете удалять свои сообщения
Вы не можете добавлять вложения

Перейти:  
 Вход
ppkBB3cker v.2 © 2008-2014 @ PPK
[ Time : 0.044s | 18 Queries | GZIP : Off ]

cron