img image001 image001 image001 image001 image001 image001 image001 image001 image001 image001 image001 image001 image001 image001 image001 image001

Planets Sun Sun Sun
Статистика раздачи
Автор: Nickolas3434 | Размер: 1.45 ГБ | Добавлен: 12 мар 2017
Раздают: 18    Качают: 0
Скачать торрент
Скачать торрент
Описание торрента

СообщениеДобавлено: 12 мар 2017 

Информация о фильме
Название: Врата
Оригинальное название: The Gate
Год выхода: 1987
Жанр: ужасы, фэнтази
Режиссер: Тибор Такач
В ролях: Стивен Дорфф, Криста Дентон, Луис Трип, Келли Роуэн, Дженнифер Ирвин, Дебора Гроувер, Скот Дентон, Ингрид Венингер, Шон Фаган и другие.
О фильме:
После выкорчевывания старого дерева во дворе дома в земле обнаружилась большая загадочная дыра. Когда родители Глена и его сестры Эл уехали из дома на три дня, с детьми начали происходить страшные события, так или иначе связанные с таинственной дырой...

Выпущено: Alliance Entertainment, Gate Productions, New Century Entertainment Corporation, The Vista Organisation Ltd., США-Канада
Продолжительность: 01:25:45
Перевод: Профессиональный двухголосый закадровый
Файл
Контейнер: AVI
Видео: XviD 73, ~2200 Кбит/с, 720x384, 23.976 Кадр/с
Звук: AC3, 192 kbps, 2.0 / 48 kHz / 192 kbps
Субтитры: Нет
General
Complete name : D:The.Gate.1987.HDRip.[-=DoMiNo=-].avi
Format : AVI
Format/Info : Audio Video Interleave
File size : 1.45 GiB
Duration : 1 h 25 min
Overall bit rate : 2 414 kb/s
Writing library : VirtualDub build 35491/release
Video
ID : 0
Format : MPEG-4 Visual
Format profile : Advanced Simple@L5
Format settings, BVOP : 1
Format settings, QPel : No
Format settings, GMC : No warppoints
Format settings, Matrix : Custom
Codec ID : XVID
Codec ID/Hint : XviD
Duration : 1 h 25 min
Bit rate : 2 212 kb/s
Width : 720 pixels
Height : 384 pixels
Display aspect ratio : 1.85:1
Frame rate : 23.976 (24000/1001) FPS
Color space : YUV
Chroma subsampling : 4:2:0
Bit depth : 8 bits
Scan type : Progressive
Compression mode : Lossy
Bits/(Pixel*Frame) : 0.334
Stream size : 1.33 GiB (92%)
Writing library : XviD 73
Audio
ID : 1
Format : AC-3
Format/Info : Audio Coding 3
Mode extension : CM (complete main)
Format settings, Endianness : Big
Codec ID : 2000
Duration : 1 h 25 min
Bit rate mode : Constant
Bit rate : 192 kb/s
Channel(s) : 2 channels
Channel positions : Front: L R
Sampling rate : 48.0 kHz
Frame rate : 31.250 FPS (1536 spf)
Bit depth : 16 bits
Compression mode : Lossy
Stream size : 118 MiB (8%)
Alignment : Aligned on interleaves
Interleave, duration : 42 ms (1.00 video frame)
Interleave, preload duratio : 512 ms



   Похожие торренты   Торрент   Размер 
В этой теме нет новых непрочитанных сообщений. Врата / The Gate (1987) BDRip 720p | P2, A

36 | 7

4.1 ГБ

В этой теме нет новых непрочитанных сообщений. Врата / The Gate (1987) BDRip от HQCLUB

32 | 4

1.45 ГБ

В этой теме нет новых непрочитанных сообщений. Врата рая / Небесные врата / Heaven's Gate (1980) HDRip | Full version | P2

7 | 0

4.36 ГБ

В этой теме нет новых непрочитанных сообщений. Врата рая / Небесные врата / Heaven's Gate (1980) BDRip от HQ-ViDEO | Full Version

0 | 0

2.91 ГБ

В этой теме нет новых непрочитанных сообщений. Врата рая / Небесные врата / Heaven's Gate (1980) BDRip 720p от k.e.n & MegaPeer | Full version | P, A

10 | 2

7.75 ГБ

В этой теме нет новых непрочитанных сообщений. Врата воинов / Warriors Gate (2016) HDRip | L

163 | 5

1.37 ГБ

В этой теме нет новых непрочитанных сообщений. Девятые врата / The Ninth Gate (1999) HDRip-AVC | D

13 | 2

745.32 МБ




Вы не можете начинать темы
Вы не можете отвечать на сообщения
Вы не можете редактировать свои сообщения
Вы не можете удалять свои сообщения
Вы не можете добавлять вложения

Перейти:  
 Вход
ppkBB3cker v.2 © 2008-2014 @ PPK
[ Time : 0.024s | 16 Queries | GZIP : Off ]

cron