img image001 image001 image001 image001 image001 image001 image001 image001 image001 image001 image001 image001 image001 image001 image001

Planets Sun Sun Sun
Статистика раздачи
Автор: Nickolas3434 | Размер: 3.63 ГБ | Добавлен: 17 мар 2017
Раздают: 2    Качают: 1
Скачать торрент
Скачать торрент
Описание торрента

СообщениеДобавлено: 17 мар 2017 

Информация о фильме
Название: Белоснежка
Оригинальное название: Snow White
Год выхода: 2001
Жанр: Фэнтези, драма, семейный
Режиссер: Кэролин Томпсон
В ролях: Миранда Ричардсон, Том Ирвин, Вера Фармига, Кристин Кройк, Клэнси Браун, Винсент Скьявелли, Хосе Суньига, Майкл Дж. Андерсон, Уорвик Дэвис, Тайрон Лейтсо, Майкл Гилден, Пенни Блейк, Мартин Клебба, Кэмпбелл Лэйн, Роб Рой, Питер Холл, Шэйн Джонс, Карин Коновал, Шон Балбар, Мишель Харрисон
О фильме:
Рождение чудесной Белоснежки омрачилось смертью матери. Теперь ее отец по имени Джон должен найти для ребенка молоко. Но спасение девочки-ангела случилось внезапно. Отец растопил своими слезами замерзшего волшебника, который в благодарность обещал исполнить три желания Джона… Однако «добрый гений» замыслил превращение собственной сестры, мерзкой и уродливой Элспит, в злую красавицу-королеву. Белоснежке грозит роль униженной падчерицы, а Джону — партия околдованного короля…

Страна: Канада, США, Германия
Студия: Babelsberg International Film Produktion GmbH, Hallmark Entertainment, Sextant Entertainment Group Inc., Snow White Productions Inc.
Продолжительность: 01:23:55
Перевод: Профессиональный двухголосый
Файл
Кодек: h.264
Качество: DVDRip
Видео: MPEG-4 AVC, 720x544, 5300 Кбит/с, 25.000 кадр/с
Звук:
Аудио #1: Русский ( AC3, 6ch, 448 Кбит/с, 48.0 KHz) Профессиональный двухголосый (Невафильм)
Аудио #2: Английский ( AC3, 6ch, 448 Кбит/с, 48.0 KHz)
Субтитры: русские
Семпл
General
Unique ID : 173535987914878549218771127205937257801 (0x828DD0C83D400BD0963E8CBBE8CF9D49)
Complete name : Snow.White.2001.DVDRip-AVC.mkv
Format : Matroska
Format version : Version 4 / Version 2
File size : 3.63 GiB
Duration : 1 h 23 min
Overall bit rate : 6 201 kb/s
Encoded date : UTC 2017-03-16 09:47:52
Writing application : mkvmerge v7.8.0 ('River Man') 64bit built on Mar 27 2015 16:31:37
Writing library : libebml v1.3.1 + libmatroska v1.4.2
Cover : Yes
Attachments : cover.jpg
Video
ID : 1
Format : AVC
Format/Info : Advanced Video Codec
Format profile : High@L4.1
Format settings, CABAC : Yes
Format settings, ReFrames : 12 frames
Codec ID : V_MPEG4/ISO/AVC
Duration : 1 h 23 min
Bit rate : 5 300 kb/s
Width : 720 pixels
Height : 544 pixels
Display aspect ratio : 4:3
Frame rate mode : Constant
Frame rate : 25.000 FPS
Color space : YUV
Chroma subsampling : 4:2:0
Bit depth : 8 bits
Scan type : Progressive
Bits/(Pixel*Frame) : 0.541
Stream size : 3.11 GiB (85%)
Title : Video
Writing library : x264 core 146 r2538 121396c
Encoding settings : cabac=1 / ref=12 / deblock=1:-3:-3 / analyse=0x3:0x133 / me=umh / subme=11 / psy=1 / psy_rd=1.00:0.00 / mixed_ref=1 / me_range=32 / chroma_me=1 / trellis=2 / 8x8dct=1 / cqm=0 / deadzone=21,11 / fast_pskip=1 / chroma_qp_offset=-2 / threads=6 / lookahead_threads=1 / sliced_threads=0 / nr=0 / decimate=1 / interlaced=0 / bluray_compat=0 / constrained_intra=0 / bframes=12 / b_pyramid=2 / b_adapt=2 / b_bias=0 / direct=3 / weightb=1 / open_gop=0 / weightp=2 / keyint=250 / keyint_min=23 / scenecut=40 / intra_refresh=0 / rc_lookahead=70 / rc=2pass / mbtree=1 / bitrate=5300 / ratetol=1.0 / qcomp=0.60 / qpmin=0 / qpmax=69 / qpstep=4 / cplxblur=20.0 / qblur=0.5 / ip_ratio=1.40 / aq=1:1.00
Language : English
Default : Yes
Forced : No
Audio #1
ID : 2
Format : AC-3
Format/Info : Audio Coding 3
Mode extension : CM (complete main)
Format settings, Endianness : Big
Codec ID : A_AC3
Duration : 1 h 23 min
Bit rate mode : Constant
Bit rate : 448 kb/s
Channel(s) : 6 channels
Channel positions : Front: L C R, Side: L R, LFE
Sampling rate : 48.0 kHz
Frame rate : 31.250 FPS (1536 spf)
Bit depth : 16 bits
Compression mode : Lossy
Stream size : 269 MiB (7%)
Title : Профессиональный двухголосый (Невафильм)
Language : Russian
Default : Yes
Forced : No
Audio #2
ID : 3
Format : AC-3
Format/Info : Audio Coding 3
Mode extension : CM (complete main)
Format settings, Endianness : Big
Codec ID : A_AC3
Duration : 1 h 23 min
Bit rate mode : Constant
Bit rate : 448 kb/s
Channel(s) : 6 channels
Channel positions : Front: L C R, Side: L R, LFE
Sampling rate : 48.0 kHz
Frame rate : 31.250 FPS (1536 spf)
Bit depth : 16 bits
Compression mode : Lossy
Stream size : 269 MiB (7%)
Title : Audio
Language : English
Default : No
Forced : No
Text
ID : 4
Format : UTF-8
Codec ID : S_TEXT/UTF8
Codec ID/Info : UTF-8 Plain Text
Duration : 1 h 22 min
Bit rate : 68 b/s
Count of elements : 966
Stream size : 41.5 KiB (0%)
Language : Russian
Default : No
Forced : No


   Похожие торренты   Торрент   Размер 
В этой теме нет новых непрочитанных сообщений. Белоснежка и семь гномов / Snow White and the seven dwarfs (Уильям Коттрелл, Дэвид Хэнд, Уилфред Джексон) [1937, мультфильм, мюзикл, фэнтези, мелодрама, семейный, BDRip-AVC] DUB / Walt Disney

15 | 1

1.51 ГБ

В этой теме нет новых непрочитанных сообщений. Белоснежка и семь гномов / Snow White and the seven dwarfs (Уильям Коттрелл, Дэвид Хэнд, Уилфред Джексон) [1937, мультфильм, мюзикл, фэнтези, мелодрама, семейный, BDRip] AVO / Walt Disney

0 | 3

1.45 ГБ

В этой теме нет новых непрочитанных сообщений. Белоснежка и семь гномов / Snow White and the seven dwarfs (Уильям Коттрелл, Дэвид Хэнд, Уилфред Джексон) [1937, мультфильм, мюзикл, фэнтези, мелодрама, семейный, BDRip 720p] DUB / Мультфильмы (HD/BD Video)

3 | 1

4.27 ГБ

В этой теме нет новых непрочитанных сообщений. Чистый звук / Mashiro no Oto / Those Snow White Notes [S01] (2021) WEBRip-HEVC 1080p | L2 | AniStar

0 | 0

2.24 ГБ

В этой теме нет новых непрочитанных сообщений. Новые приключения Белоснежки / Happily Ever After: Snow White's Greatest Adventure (Джон Хаули) [1988, мультфильм, мюзикл, фэнтези, семейный, WEBDLRip] MVO + 3xAVO

3 | 1

1.47 ГБ

В этой теме нет новых непрочитанных сообщений. Белый клык 2: Легенда о белом волке / White Fang 2: Myth of the White Wolf (1994) WEB-DLRip-AVC от ExKinoRay | iTunes

0 | 0

2.56 ГБ

В этой теме нет новых непрочитанных сообщений. Белый олеандр / White oleander (2002) DVDRip-AVC | D

39 | 6

2.17 ГБ




Вы не можете начинать темы
Вы не можете отвечать на сообщения
Вы не можете редактировать свои сообщения
Вы не можете удалять свои сообщения
Вы не можете добавлять вложения

Перейти:  
Контактная информация: rstracker[пёсик]yandex.ru
 Вход
ppkBB3cker v.2 © 2008-2014 @ PPK
[ Time : 0.032s | 18 Queries | GZIP : Off ]

cron