img image001 image001 image001 image001 image001 image001 image001 image001 image001 image001 image001 image001 image001 image001 image001

Planets Sun Sun Sun
Статистика раздачи
Автор: Nickolas3434 | Размер: 22.32 ГБ | Добавлен: 17 мар 2017
Раздают: 14    Качают: 9
Скачать торрент
Скачать торрент
Описание торрента

СообщениеДобавлено: 17 мар 2017 

Информация о фильме
Название: Безумный Макс: Дорога ярости
Оригинальное название: Mad Max: Fury Road
Год выхода: 2015
Жанр: боевик, фантастика, приключения
Режиссер: Джордж Миллер
В ролях: Том Харди, Шарлиз Терон, Николас Холт, Хью Кияс-Бёрн, Райли Кио, Роузи Хантингтон-Уайтли, Зои Кравиц, Эбби Ли, Кортни Итон, Нэйтан Джонс
О фильме:
Преследуемый призраками беспокойного прошлого, Макс уверен, что лучший способ выжить — скитаться в одиночестве. Несмотря на это, он присоединяется к бунтарям, бегущим через всю пустыню на боевой фуре, под предводительством военачальника Фуриосы.
Они пытаются сбежать из Цитадели, страдающей от тирании Несмертного Джо, у которого они забрали кое-что очень ценное. Разъярённый военачальник бросает все свои силы на погоню за мятежниками, ступая на дорогу войны — дорогу ярости.
Обладатель 6 премий «ОСКАР» за Лучшие костюмы, Лучший звук, Лучший монтаж, Лучший монтаж звука, Лучший грим и прически и Лучшую работу художника-постановщика, 2016 г.

Top IMDB 250: #197
Страна: Австралия, США
Продолжительность: 02:00:23
Перевод #1: Профессиональный (дублированный) Blu-Ray
Перевод #2: Профессиональный (дублированный) R5
Перевод #3: Авторский (одноголосый закадровый) А. Гаврилов
Перевод #4: Авторский (одноголосый закадровый) А. Карповский
Перевод #5: Авторский (одноголосый закадровый) А. Матвеев
Перевод #6: Авторский (одноголосый закадровый) Д. Есарев
Перевод #7: Авторский (одноголосый закадровый) Л. Володарский
Перевод #8: Профессиональный (многоголосый закадровый) Омикрон
Перевод #9: Авторский (одноголосый закадровый) Ю. Сербин
Файл
Формат: MKV
Качество: BDRip 1080p [Mad Max: Fury Road 2015 Black & Chrome Edition 1080p BluRay DD5.1 x264-VietHD]
Видео: 1920x800 at 23.976 fps, x264@L4.1, ~14.3 Mbps avg
Aудио#1: Russian: 48 kHz, AC3, 3/2 (L,C,R,l,r) + LFE ch, ~448.00 kbps avg |Дубляж, Blu-Ray|
Aудио#2: English: 48 kHz, AC3, 3/2 (L,C,R,l,r) + LFE ch, ~640.00 kbps avg
Aудио#3: Ukrainian: 48 kHz, AC3, 3/2 (L,C,R,l,r) + LFE ch, ~640.00 kbps avg |Дубляж, R5| отдельно
Aудио#4: Russian: 48 kHz, DTS, 3/2 (L,C,R,l,r) + LFE ch, ~1509 kbps avg |Одноголосый закадровый, А. Гаврилов| отдельно
Aудио#5: Russian: 48 kHz, DTS, 3/2 (L,C,R,l,r) + LFE ch, ~1509 kbps avg |Одноголосый закадровый, А. Карповский| отдельно
Aудио#6: Russian: 48 kHz, DTS, 3/2 (L,C,R,l,r) + LFE ch, ~1509 kbps avg |Одноголосый закадровый, А. Матвеев| отдельно
Aудио#7: Russian: 48 kHz, DTS, 3/2 (L,C,R,l,r) + LFE ch, ~1509 kbps avg |Одноголосый закадровый, Д. Есарев| отдельно
Aудио#8: Russian: 48 kHz, DTS, 3/2 (L,C,R,l,r) + LFE ch, ~1509 kbps avg |Одноголосый закадровый, Л. Володарский| отдельно
Aудио#9: Russian: 48 kHz, DTS, 3/2 (L,C,R,l,r) + LFE ch, ~1509 kbps avg |Многоголосый закадровый, Омикрон| отдельно
Aудио#10: Russian: 48 kHz, DTS, 3/2 (L,C,R,l,r) + LFE ch, ~1509 kbps avg |Одноголосый закадровый, Ю. Сербин| отдельно
Субтитры: Русские (8 видов), украинские (forced), английские (full, SDH, SDH-Colored)
General
Unique ID : 249547553182731560076907948234719241674 (0xBBBD1C4B30D1248EB6838E127F9225CA)
Complete name : Mad.Max.Fury.Road.2015.BDRip.1080p.Black&Chrome.Edition
Format : Matroska
Format version : Version 4 / Version 2
File size : 12.9 GiB
Duration : 2 h 0 min
Overall bit rate : 15.3 Mb/s
Encoded date : UTC 2017-01-10 17:50:13
Writing application : mkvmerge v9.7.1 ('Pandemonium') 64bit
Writing library : libebml v1.3.4 + libmatroska v1.4.5
Attachments : poster.jpg
Video
ID : 1
Format : AVC
Format/Info : Advanced Video Codec
Format profile : High@L4.1
Format settings, CABAC : Yes
Format settings, ReFrames : 5 frames
Codec ID : V_MPEG4/ISO/AVC
Duration : 2 h 0 min
Bit rate : 14.3 Mb/s
Width : 1 920 pixels
Height : 800 pixels
Display aspect ratio : 2.40:1
Frame rate mode : Constant
Frame rate : 23.976 (24000/1001) FPS
Color space : YUV
Chroma subsampling : 4:2:0
Bit depth : 8 bits
Scan type : Progressive
Bits/(Pixel*Frame) : 0.387
Stream size : 12.0 GiB (93%)
Title : Mad Max Fury Road 2015 Black & Chrome Edition1080p BluRay DD5.1 x264-VietHD
Writing library : x264 core 148 r2721kMod 72d53ab
Encoding settings : cabac=1 / ref=5 / deblock=1:-3:-3 / analyse=0x3:0x133 / me=umh / subme=10 / psy=1 / fade_compensate=0.00 / psy_rd=1.05:0.00 / mixed_ref=1 / me_range=24 / chroma_me=1 / trellis=2 / 8x8dct=1 / cqm=0 / deadzone=21,11 / fast_pskip=0 / chroma_qp_offset=-2 / threads=56 / lookahead_threads=6 / sliced_threads=0 / nr=0 / decimate=0 / interlaced=0 / bluray_compat=0 / constrained_intra=0 / fgo=0 / bframes=8 / b_pyramid=2 / b_adapt=2 / b_bias=0 / direct=3 / weightb=1 / open_gop=0 / weightp=2 / keyint=250 / keyint_min=23 / scenecut=40 / intra_refresh=0 / rc_lookahead=60 / rc=crf / mbtree=0 / crf=18.5000 / qcomp=0.60 / qpmin=0 / qpmax=69 / qpstep=4 / vbv_maxrate=62500 / vbv_bufsize=78125 / crf_max=0.0 / nal_hrd=none / filler=0 / ip_ratio=1.30 / pb_ratio=1.25 / aq=3:0.60 / zones=133,1198,crf=16.7/3857,4903,crf=16.7/5664,7595,crf=16.7/8390,8580,crf=16.7/11111,11195,crf=16.7/16338,16390,crf=15.5/19789,20445,crf=16.7/20446,20559,crf=16/20560,21036,crf=16.7/28858,29225,crf=16.7/29977,30052,crf=16.7/30118,30365,crf=16.7/31164,31201,crf=16.7/32731,32897,crf=16.7/33504,43580,crf=16.7/56817,56868,crf=16.7/77320,87495,crf=16.7/87900,87915,crf=15.5/87938,88204,crf=15.5/92651,92848,crf=16/93175,93242,crf=15.5/93243,94263,crf=16/94264,94508,crf=15/94509,99043,crf=16/99044,99133,crf=16/99134,100677,crf=16/100678,100850,crf=15.5/100851,107952,crf=16/107953,107966,crf=15/108010,108030,crf=15.5/118150,118171,crf=16/118207,118368,crf=15.5/118369,123104,crf=16/130435,153620,crf=16.5/153621,153632,crf=15.5/153822,153866,crf=15.5/162510,162640,crf=15.5/162643,173187,crf=23
Language : English
Default : Yes
Forced : No
Audio #1
ID : 2
Format : AC-3
Format/Info : Audio Coding 3
Mode extension : CM (complete main)
Format settings, Endianness : Big
Codec ID : A_AC3
Duration : 2 h 0 min
Bit rate mode : Constant
Bit rate : 448 kb/s
Channel(s) : 6 channels
Channel positions : Front: L C R, Side: L R, LFE
Sampling rate : 48.0 kHz
Frame rate : 31.250 FPS (1536 spf)
Bit depth : 16 bits
Compression mode : Lossy
Stream size : 386 MiB (3%)
Title : Dub, Blu-Ray
Language : Russian
Default : Yes
Forced : No
Audio #2
ID : 3
Format : AC-3
Format/Info : Audio Coding 3
Mode extension : CM (complete main)
Format settings, Endianness : Big
Codec ID : A_AC3
Duration : 2 h 0 min
Bit rate mode : Constant
Bit rate : 640 kb/s
Channel(s) : 6 channels
Channel positions : Front: L C R, Side: L R, LFE
Sampling rate : 48.0 kHz
Frame rate : 31.250 FPS (1536 spf)
Bit depth : 16 bits
Compression mode : Lossy
Stream size : 551 MiB (4%)
Language : English
Default : No
Forced : No
Text #1
ID : 4
Format : UTF-8
Codec ID : S_TEXT/UTF8
Codec ID/Info : UTF-8 Plain Text
Duration : 1 h 53 min
Bit rate : 0 b/s
Count of elements : 9
Stream size : 405 Bytes (0%)
Title : forced, Blu-Ray
Language : Russian
Default : Yes
Forced : No
Text #2
ID : 5
Format : UTF-8
Codec ID : S_TEXT/UTF8
Codec ID/Info : UTF-8 Plain Text
Duration : 1 h 57 min
Bit rate : 34 b/s
Count of elements : 876
Stream size : 29.5 KiB (0%)
Title : full, Blu-Ray
Language : Russian
Default : No
Forced : No
Text #3
ID : 6
Format : UTF-8
Codec ID : S_TEXT/UTF8
Codec ID/Info : UTF-8 Plain Text
Duration : 1 h 53 min
Bit rate : 39 b/s
Count of elements : 873
Stream size : 32.9 KiB (0%)
Title : А. Матвеев
Language : Russian
Default : No
Forced : No
Text #4
ID : 7
Format : UTF-8
Codec ID : S_TEXT/UTF8
Codec ID/Info : UTF-8 Plain Text
Duration : 1 h 53 min
Bit rate : 38 b/s
Count of elements : 857
Stream size : 32.0 KiB (0%)
Title : А. Кузнецова
Language : Russian
Default : No
Forced : No
Text #5
ID : 8
Format : UTF-8
Codec ID : S_TEXT/UTF8
Codec ID/Info : UTF-8 Plain Text
Duration : 1 h 53 min
Bit rate : 40 b/s
Count of elements : 852
Stream size : 33.5 KiB (0%)
Title : Е. Воронин
Language : Russian
Default : No
Forced : No
Text #6
ID : 9
Format : UTF-8
Codec ID : S_TEXT/UTF8
Codec ID/Info : UTF-8 Plain Text
Duration : 1 h 53 min
Bit rate : 50 b/s
Count of elements : 1110
Stream size : 41.4 KiB (0%)
Title : Е. Воронин SDH
Language : Russian
Default : No
Forced : No
Text #7
ID : 10
Format : UTF-8
Codec ID : S_TEXT/UTF8
Codec ID/Info : UTF-8 Plain Text
Duration : 1 h 52 min
Bit rate : 38 b/s
Count of elements : 842
Stream size : 31.7 KiB (0%)
Title : Notabenoid
Language : Russian
Default : No
Forced : No
Text #8
ID : 11
Format : UTF-8
Codec ID : S_TEXT/UTF8
Codec ID/Info : UTF-8 Plain Text
Duration : 1 h 51 min
Bit rate : 42 b/s
Count of elements : 914
Stream size : 34.6 KiB (0%)
Title : Notabenoid 2
Language : Russian
Default : No
Forced : No
Text #9
ID : 12
Format : UTF-8
Codec ID : S_TEXT/UTF8
Codec ID/Info : UTF-8 Plain Text
Duration : 1 h 53 min
Bit rate : 0 b/s
Count of elements : 11
Stream size : 501 Bytes (0%)
Title : forced
Language : Ukrainian
Default : No
Forced : No
Text #10
ID : 13
Format : UTF-8
Codec ID : S_TEXT/UTF8
Codec ID/Info : UTF-8 Plain Text
Duration : 1 h 51 min
Bit rate : 24 b/s
Count of elements : 908
Stream size : 19.9 KiB (0%)
Title : full
Language : English
Default : No
Forced : No
Text #11
ID : 14
Format : UTF-8
Codec ID : S_TEXT/UTF8
Codec ID/Info : UTF-8 Plain Text
Duration : 2 h 0 min
Bit rate : 28 b/s
Count of elements : 1167
Stream size : 24.6 KiB (0%)
Title : SDH
Language : English
Default : No
Forced : No
Text #12
ID : 15
Format : UTF-8
Codec ID : S_TEXT/UTF8
Codec ID/Info : UTF-8 Plain Text
Duration : 1 h 51 min
Bit rate : 44 b/s
Count of elements : 1166
Stream size : 36.3 KiB (0%)
Title : SDH-Colored
Language : English
Default : No
Forced : No
Menu
00:00:00.000 : :Chapter 01
00:10:42.475 : :Chapter 02
00:19:06.436 : :Chapter 03
00:30:12.310 : :Chapter 04
00:42:55.614 : :Chapter 05
00:49:33.345 : :Chapter 06
00:59:55.174 : :Chapter 07
01:13:02.544 : :Chapter 08
01:22:08.924 : :Chapter 09
01:30:02.730 : :Chapter 10
01:40:39.867 : :Chapter 11
01:49:12.546 : :Chapter 12
01:53:06.279 : :Chapter 13
Mad Max: Fury Road 2015 Black & Chrome Edition 1080p BluRay DD5.1 x264-VietHD
.RELEASE iNFO
RELEASE NAME...: Mad Max: Fury Road 2015 Black & Chrome Edition 1080p BluRay DD5.1 x264-VietHD
RELEASE SiZE...: 12.5 GiB
RUNTiME........: 2h 0mn
ViDEO CODEC....: x264, CRF=18.5, High@L4.1
FRAMERATE......: 23.976 fps
BiTRATE........: 14.3 Mbps
ASPECT RATiO...: 2.40:1
RESOLUTiON.....: 1920x800
AUDiO..........: English AC-3 6ch @ 640 Kbps
CHAPTERS.......: Numbered like on Blu-ray
SOURCE.........: Black & Chrome Edition 1080p CEE Blu-ray AVC TrueHD 7.1
SUBTiTLES......: English, Vietnamese(.SRT)
ENCODER........: m2ts
.N0TES
*Use f3kdb, ConditionalFilter and zones!
.x264 iNFO
x264 [info]: frame I:1293 Avg QP:18.20 size:193337
x264 [info]: frame P:46196 Avg QP:19.52 size:110980
x264 [info]: frame B:125698 Avg QP:21.18 size: 59625
x264 [info]: consecutive B-frames: 4.4% 7.7% 11.1% 30.2% 16.0% 20.5% 4.3% 3.2% 2.6%
encoded 173187 frames, 18.22 fps, 14255.58 kb/s, duration 2:38:24.37

   Похожие торренты   Торрент   Размер 
В этой теме нет новых непрочитанных сообщений. Безумный Макс: Дорога ярости / Mad Max: Fury Road (2015) BDRip-HEVC 1080p | D, P, A

0 | 0

12.85 ГБ

В этой теме нет новых непрочитанных сообщений. Безумный Макс: Дорога ярости / Mad Max: Fury Road (2015) BDRip-HEVC 1080p | Лицензия

195 | 2

8.1 ГБ

В этой теме нет новых непрочитанных сообщений. Безумный Макс: Дорога ярости / Mad Max: Fury Road (2015) BDRemux 1080p | D, A

0 | 0

38.61 ГБ

В этой теме нет новых непрочитанных сообщений. Безумный Макс: Дорога ярости / Mad Max: Fury Road (2015) UHD BDRemux 2160p от ExKinoRay | 4K | HDR | Лицензия

21 | 5

42.65 ГБ

В этой теме нет новых непрочитанных сообщений. Безумный Макс: Дорога ярости / Mad Max: Fury Road (2015) UHD BDRemux 2160p от ExKinoRay | 4K | HDR | Лицензия

0 | 1

42.59 ГБ

В этой теме нет новых непрочитанных сообщений. Безумный Макс: Дорога ярости / Mad Max: Fury Road (2015) UHD BDRemux 2160p | 4K | HDR | Dolby Vision Profile 8 | D, P, A | Лицензия

0 | 0

77.76 ГБ

В этой теме нет новых непрочитанных сообщений. Безумный Макс: Коллекция / Mad Max: Collection (1979-2015) BDRip 1080p

0 | 0

62.3 ГБ




Вы не можете начинать темы
Вы не можете отвечать на сообщения
Вы не можете редактировать свои сообщения
Вы не можете удалять свои сообщения
Вы не можете добавлять вложения

Перейти:  
Контактная информация: rstracker[пёсик]yandex.ru
 Вход
ppkBB3cker v.2 © 2008-2014 @ PPK
[ Time : 0.032s | 19 Queries | GZIP : Off ]

cron