img image001 image001 image001 image001 image001 image001 image001 image001 image001 image001 image001 image001 image001 image001 image001

Planets Sun Sun Sun
Статистика раздачи
Автор: Nickolas3434 | Размер: 11.27 ГБ | Добавлен: 27 мар 2017
Раздают: 8    Качают: 4
Скачать торрент
Скачать торрент
Описание торрента

СообщениеДобавлено: 27 мар 2017 

Информация о фильме
Название: Путешествие к центру Земли
Оригинальное название: Journey to the Center of the Earth
Год выхода: 2008
Жанр: фантастика, приключения
Режиссер: Эрик Бревиг
В ролях: Брендан Фрейзер, Джош Хатчерсон, Анита Брием, Сет Мейерс, Жан Мишель Паре, Джейн Вилер, Фрэнк Фонтейн, Джанкарло Кальтабиано, Каньехтио Хорн, Гарт Гилкер
О фильме:
Пытаясь узнать о судьбе исчезнувшего брата, учёный, его племянник и их проводница открывают фантастичный и опасный затерянный мир в центре Земли.
Это первый фильм, который был снят в формате цифрового 3D.

Страна: США
Студия: New Line Cinema, Walden Media, MELS
Продолжительность: 01:32:34
Перевод: Дубляж
Файл
Кодек: H.265/HEVC
Качество: BDRip 1080p HEVC
Видео: 1920x2160 px, ~16,6 Mb/s (avg), 23,976 fps
Звук: Русский AC3, 448 kbps, 5.1 ch, 16 bits
Субтитры: Нет
3D: Левый ракурс сверху
Семпл
General
Unique ID : 241284738389463379905940386763621533905 (0xB585C012455559CDBEA62A9A038808D1)
Complete name : Journey to the Center of the Earth (2008) 1080p HEVC 3D-ab.mkv
Format : Matroska
Format version : Version 3 / Version 2
File size : 11.3 GiB
Duration : 1 h 32 min
Overall bit rate : 17.4 Mb/s
Movie name : Journey to the Center of the Earth (2008) 3D Full-T&B (x265)
Encoded date : UTC 2017-03-15 17:39:53
Writing application : mkvmerge v9.8.0 ('Kuglblids') 64bit
Writing library : libebml v1.3.4 + libmatroska v1.4.5
Video
ID : 1
Format : HEVC
Format/Info : High Efficiency Video Coding
Format profile : Main 10@L5@High
MultiView_Count : 2
MultiView_Layout : Top-Bottom (left eye first)
Codec ID : V_MPEGH/ISO/HEVC
Duration : 1 h 32 min
Bit rate : 16.6 Mb/s
Width : 1 920 pixels
Height : 2 160 pixels
Display aspect ratio : 0.889
Original display aspect ratio : 16:9
Frame rate mode : Constant
Frame rate : 23.976 (24000/1001) FPS
Color space : YUV
Chroma subsampling : 4:2:0
Bit depth : 10 bits
Bits/(Pixel*Frame) : 0.167
Stream size : 10.8 GiB (95%)
Title : 3D Full-T&B (x265)
Writing library : x265 2.3+7-c15f8bce9f4b:[Windows][GCC 6.3.0][64 bit] 10bit
Encoding settings : cpuid=1050111 / frame-threads=3 / numa-pools=8 / wpp / no-pmode / no-pme / no-psnr / no-ssim / log-level=2 / input-csp=1 / input-res=1920x2160 / interlace=0 / total-frames=133183 / level-idc=50 / high-tier=1 / uhd-bd=0 / ref=1 / no-allow-non-conformance / no-repeat-headers / annexb / no-aud / no-hrd / info / hash=0 / no-temporal-layers / open-gop / min-keyint=23 / keyint=250 / bframes=4 / b-adapt=2 / b-pyramid / bframe-bias=0 / rc-lookahead=40 / lookahead-slices=2 / scenecut=40 / no-intra-refresh / ctu=32 / min-cu-size=8 / no-rect / no-amp / max-tu-size=16 / tu-inter-depth=1 / tu-intra-depth=1 / limit-tu=0 / rdoq-level=2 / dynamic-rd=4.00 / signhide / no-tskip / nr-intra=0 / nr-inter=0 / no-constrained-intra / no-strong-intra-smoothing / max-merge=2 / limit-refs=0 / no-limit-modes / me=3 / subme=7 / merange=57 / temporal-mvp / weightp / weightb / no-analyze-src-pics / no-deblock / no-sao / no-sao-non-deblock / rd=3 / early-skip / no-rskip / no-fast-intra / no-tskip-fast / no-cu-lossless / no-b-intra / rdpenalty=0 / psy-rd=3.00 / psy-rdoq=2.00 / no-rd-refine / analysis-mode=0 / no-lossless / cbqpoffs=0 / crqpoffs=0 / rc=crf / crf=24.0 / qcomp=0.80 / qpstep=1 / stats-write=0 / stats-read=0 / vbv-maxrate=100000 / vbv-bufsize=100000 / vbv-init=0.9 / crf-max=0.0 / crf-min=0.0 / ipratio=1.10 / pbratio=1.10 / aq-mode=3 / aq-strength=1.00 / no-cutree / zone-count=0 / no-strict-cbr / qg-size=16 / no-rc-grain / qpmax=51 / qpmin=0 / sar=16 / overscan=0 / videoformat=5 / range=0 / colorprim=1 / transfer=2 / colormatrix=2 / chromaloc=0 / display-window=0 / max-cll=0,0 / min-luma=0 / max-luma=1023 / log2-max-poc-lsb=8 / vui-timing-info / vui-hrd-info / slices=1 / opt-qp-pps / opt-ref-list-length-pps / no-multi-pass-opt-rps / scenecut-bias=0.05 / no-opt-cu-delta-qp / aq-motion / no-hdr / no-hdr-opt / Capture-colorprim=3
Default : Yes
Forced : No
Color range : Limited
Color primaries : BT.709
Audio
ID : 2
Format : AC-3
Format/Info : Audio Coding 3
Format settings, Endianness : Big
Codec ID : A_AC3
Duration : 1 h 32 min
Bit rate mode : Constant
Bit rate : 448 kb/s
Channel(s) : 6 channels
Channel positions : Front: L C R, Side: L R, LFE
Sampling rate : 48.0 kHz
Frame rate : 31.250 FPS (1536 spf)
Bit depth : 16 bits
Compression mode : Lossy
Stream size : 297 MiB (3%)
Title : Russian (AC3 5.1 48KHz)
Language : Russian
Service kind : Complete Main
Default : Yes
Forced : No
Menu
00:00:00.000 : :1 - 0:00:00
00:03:21.618 : :2 - 0:03:22
00:07:13.850 : :3 - 0:07:14
00:11:56.424 : :4 - 0:11:56
00:17:51.361 : :5 - 0:17:51
00:22:22.007 : :6 - 0:22:22
00:28:11.022 : :7 - 0:28:11
00:33:36.472 : :8 - 0:33:36
00:38:58.294 : :9 - 0:38:58
00:42:18.035 : :10 - 0:42:18
00:45:23.595 : :11 - 0:45:24
00:51:20.368 : :12 - 0:51:20
00:56:32.639 : :13 - 0:56:33
01:00:20.867 : :14 - 1:00:21
01:05:20.458 : :15 - 1:05:20
01:08:56.090 : :16 - 1:08:56
01:14:09.736 : :17 - 1:14:10
01:15:58.011 : :18 - 1:15:58
01:19:05.449 : :19 - 1:19:05
01:22:02.834 : :20 - 1:22:03
01:26:07.996 : :21 - 1:26:08
01:32:34.590 : :22 - 1:32:35

   Похожие торренты   Торрент   Размер 
В этой теме нет новых непрочитанных сообщений. Человек с Земли / The Man from Earth (2007) BDRip-HEVC 1080p от RIPS CLUB | P, A | USA Transfer | Remastered Special Edition

23 | 2

5.32 ГБ

В этой теме нет новых непрочитанных сообщений. Путешествие на Запад: Демоны / Xi you fu yao pian / Journey to the West: Demon Chapter (2017) BDRip 1080p от Ash61 | 3D-Video | hOU | L

0 | 0

16.09 ГБ

В этой теме нет новых непрочитанных сообщений. Последний день Земли / Le dernier voyage (2020) BDRip-HEVC 1080p от HEVC-CLUB | iTunes

0 | 0

3.58 ГБ

В этой теме нет новых непрочитанных сообщений. Последний день Земли / The Last Journey / Le dernier voyage (2020) BDRip 1080p | D | Line

0 | 0

6.79 ГБ

В этой теме нет новых непрочитанных сообщений. Мумия: Трилогия / The Mummy: Trilogy (1999-2008) HD-DVDRip-HEVC 1080p, UHD BDRip-HEVC 1080p, BDRip-HEVC 1080p

0 | 0

36.47 ГБ

В этой теме нет новых непрочитанных сообщений. Мистер Джангл и рождественское путешествие / Jingle Jangle: A Christmas Journey (2020) WEB-DL-HEVC 2160p | 4K | HDR | Netflix

0 | 0

12.19 ГБ

В этой теме нет новых непрочитанных сообщений. Удивительное путешествие в тундру / Fantastic Tundra Journey (2008) DVDRip

0 | 0

1.03 ГБ




Вы не можете начинать темы
Вы не можете отвечать на сообщения
Вы не можете редактировать свои сообщения
Вы не можете удалять свои сообщения
Вы не можете добавлять вложения

Перейти:  
Контактная информация: rstracker[пёсик]yandex.ru
 Вход
ppkBB3cker v.2 © 2008-2014 @ PPK
[ Time : 0.030s | 18 Queries | GZIP : Off ]

cron