img image001 image001 image001 image001 image001 image001 image001 image001 image001 image001 image001 image001 image001 image001 image001 image001

Planets Sun Sun Sun
Статистика раздачи
Автор: Nickolas3434 | Размер: 3.38 ГБ | Добавлен: 28 мар 2017
Раздают: 25    Качают: 5
Скачать торрент
Скачать торрент
Описание торрента

СообщениеДобавлено: 28 мар 2017 

Название: Клуб страха
Оригинальное название: Club Dread
Год выхода: 2004
Страна: США
Студия: Broken Lizard Industries, Cataland Films, Coconut Pete Productions
Продолжительность: 01:43:52
Жанр: ужасы, триллер, комедия
Режиссер: Джей Чандрашекхар
В ролях: Елена Лайонс, Дэн Монтгомери мл., Таня Ричерт, Нат Факсон, Майкл Уивер, Кевин Хеффернан, Майкл Юрчак, Джордан Лэдд, Бриттани Дэниэл, Ричард Перелло, ...
Перевод:
- Профессиональный (многоголосный, закадровый) Гемини
- Профессиональный (многоголосный, закадровый) ?
О фильме: Посреди океана есть остров-курорт, единственное предназначение которого — доставлять любое удовольствие туристам. Играет веселая музыка, текила и виски льются рекой, полуобнаженные сексуальные девушки готовы для общения, а обслуживающий персонал удовлетворит любое желание. Настоящий рай.
Но на острове начинают происходить жестокие убийства. Кто-то, вооружившись огромным мачете, начинает рубить на куски всех подряд. Бесконечная вечеринка превращается в кошмар, а желание повеселиться — в желание выжить…

Кодек: MPEG4/ISO/AVC
Качество: WEB-DL 720p
Видео: 1280x544, 3987 kbps, 23,976 fps
Аудио #1: AC-3, 2 ch, 192 kbps (Rus) - MVO Гемини
Аудио #2: AC-3, 2 ch, 192 kbps (Rus) - MVO
Аудио #3: AC-3, 2 ch, 192 kbps (Eng)
Субтитры: нет
Общее
Уникальный идентификатор : 198259955316102197717555059953684206541 (0x95277A7D1DA54FBC925A02BDB29853CD)
Полное имя : Клуб страха (Club Dread) 2004 WEB-DL 720p.mkv
Формат : Matroska
Версия формата : Version 2
Размер файла : 3,38 Гбайт
Продолжительность : 1 ч. 43 м.
Общий поток : 4656 Кбит/сек
Дата кодирования : UTC 2017-03-25 20:56:00
Программа кодирования : mkvmerge v4.0.0 ('The Stars were mine') сборка от Jun 6 2010 16:18:42
Библиотека кодирования : libebml v1.0.0 + libmatroska v1.0.0
Видео
Идентификатор : 1
Формат : AVC
Формат/Информация : Advanced Video Codec
Профиль формата : Main@L3.1
Параметр CABAC формата : Нет
Параметр ReFrames формата : 2 кадра
Идентификатор кодека : V_MPEG4/ISO/AVC
Продолжительность : 1 ч. 43 м.
Битрейт : 3987 Кбит/сек
Ширина : 1280 пикселей
Высота : 544 пикселя
Соотношение сторон : 2,35:1
Режим частоты кадров : Постоянный
Частота кадров : 23,976 кадра/сек
Цветовое пространство : YUV
Субдискретизация насыщенности : 4:2:0
Битовая глубина : 8 бит
Тип развёртки : Прогрессивная
Бит/(Пиксели*Кадры) : 0.239
Размер потока : 2,89 Гбайт (86%)
Язык : English
Default : Нет
Forced : Нет
Основные цвета : BT.709
Характеристики трансфера : BT.709
Коэффициенты матрицы : BT.709
Аудио #1
Идентификатор : 2
Формат : AC-3
Формат/Информация : Audio Coding 3
Расширение режима : CM (complete main)
Параметр Endianness формата : Big
Идентификатор кодека : A_AC3
Продолжительность : 1 ч. 43 м.
Вид битрейта : Постоянный
Битрейт : 192 Кбит/сек
Каналы : 2 канала
Расположение каналов : Front: L R
Частота : 48,0 КГц
Битовая глубина : 16 бит
Метод сжатия : С потерями
Задержка видео : 1 с. 0 мс.
Размер потока : 143 Мбайт (4%)
Заголовок : MVO Гемини
Язык : Russian
Default : Нет
Forced : Нет
Аудио #2
Идентификатор : 3
Формат : AC-3
Формат/Информация : Audio Coding 3
Расширение режима : CM (complete main)
Параметр Endianness формата : Big
Идентификатор кодека : A_AC3
Продолжительность : 1 ч. 43 м.
Вид битрейта : Постоянный
Битрейт : 192 Кбит/сек
Каналы : 2 канала
Расположение каналов : Front: L R
Частота : 48,0 КГц
Битовая глубина : 16 бит
Метод сжатия : С потерями
Задержка видео : 8 мс.
Размер потока : 143 Мбайт (4%)
Заголовок : MVO
Язык : Russian
Default : Нет
Forced : Нет
Аудио #3
Идентификатор : 4
Формат : AC-3
Формат/Информация : Audio Coding 3
Расширение режима : CM (complete main)
Параметр Endianness формата : Big
Идентификатор кодека : A_AC3
Продолжительность : 1 ч. 43 м.
Вид битрейта : Постоянный
Битрейт : 192 Кбит/сек
Каналы : 2 канала
Расположение каналов : Front: L R
Частота : 48,0 КГц
Битовая глубина : 16 бит
Метод сжатия : С потерями
Размер потока : 143 Мбайт (4%)
Язык : English
Default : Нет
Forced : Нет





   Похожие торренты   Торрент   Размер 
В этой теме нет новых непрочитанных сообщений. Клуб страха / Club Dread (2004) WEB-DLRip от Portablius | Р

26 | 2

699.2 МБ

В этой теме нет новых непрочитанных сообщений. Клуб страха / Остров ужасов / Club Dread (2004) WEB-DLRip | Р

22 | 4

1.45 ГБ

В этой теме нет новых непрочитанных сообщений. Клуб выживших / The Survivors Club (2004) TVRip | P2

6 | 0

1.35 ГБ

В этой теме нет новых непрочитанных сообщений. Секс-клуб с клубничкой / Kinky Sex Club (2004) IPTVRip от torrentfilm | P

2322 | 263

746.48 МБ

В этой теме нет новых непрочитанных сообщений. Бойцовский клуб / Fight Club (1999) HDRip от NNM-CLUB | Завгородний

157 | 75

2.18 ГБ

В этой теме нет новых непрочитанных сообщений. Бойцовский клуб / Fight Club (1999) HDRip от NNM-CLUB | Гаврилов

294 | 31

2.18 ГБ

В этой теме нет новых непрочитанных сообщений. Фобос. Клуб страха (2010) HDTV 1080i от MediaClub

25 | 3

7.58 ГБ




Вы не можете начинать темы
Вы не можете отвечать на сообщения
Вы не можете редактировать свои сообщения
Вы не можете удалять свои сообщения
Вы не можете добавлять вложения

Перейти:  
 Вход
ppkBB3cker v.2 © 2008-2014 @ PPK
[ Time : 0.039s | 16 Queries | GZIP : Off ]

cron