img image001 image001 image001 image001 image001 image001 image001 image001 image001 image001 image001 image001 image001 image001 image001

Planets Sun Sun Sun

COVID-19 - Последняя информация о коронавирусе на сайте Минздрава


Статистика раздачи
Автор: Nickolas3434 | Размер: 2.5 ГБ | Добавлен: 31 мар 2017
Раздают: 21    Качают: 5
Скачать торрент
Скачать торрент
Описание торрента

СообщениеДобавлено: 31 мар 2017 

Загадочная кожа / Mysterious Skin
Страна: Нидерланды США
Производство: Fortissimo Film, Desperate Pictures, Antidote Films (I)
Год выпуска: 2004
Жанр: драма
Продолжительность: 01:45:07
Режиссер: Грегг Араки
Авторы сценария: Грегг Араки, Скотт Хейм
В ролях: Джозеф Гордон-Левитт, Брэйди Корбет, Мишель Трахтенберг, Джеффри Ликон, Билл Сейдж, Мэри Линн Райскаб, Элизабет Шу, Чейз Эллисон
Описание: Когда Брайану было восемь лет, он очнулся в погребе возле своего дома в Канзасе, у него шла кровь из носа, и он понятия не имел, как там оказался. После этого его жизнь стала другой — он боится темноты, мочится в постель, и ему снятся страшные сны.
Сейчас Брайану 18. Нилу тоже 18, и он жаждет любовных отношений, которые были у него с тренером малой лиги, когда ему было восемь лет. Когда молодые люди знакомятся, они начинают осознавать, что события, оказавшие на них самое сильное влияние в детстве, были не тем, чем казались…

Перевод: Профессиональный (многоголосый) | R5 + Авторский (одноголосый) | Евгений Гранкин
Субтитры: русские | отдельным файлом

Качество: BDRip | исходник Zagadochnaya_Kozha.2004.BDRemux.mkv
Формат: AVI
Видео кодек: XviD
Аудио кодек: AC3
Видео: 704x400 (16:9), 23.976 fps, XviD build 73 ~2 174 kbps avg
Аудио №1: 48.0 kHz, AC3 Dolby Digital, 3/2 (L,C,R,l,r) + LFE ch, ~384 kbps | MVO
Аудио №2: 48.0 kHz, AC3 Dolby Digital, 3/2 (L,C,R,l,r) + LFE ch, ~384 kbps | AVO
Аудио №3: 48.0 kHz, AC3 Dolby Digital, 3/2 (L,C,R,l,r) + LFE ch, ~448 kbps | ENG / отдельным файлом
Формат субтитров: *SRT
Дата премьеры (мир): 3 сентября 2004
Дата премьеры (РФ): 26 мая 2005, «Кармен Фильм»

Релиз от: tеko
General
Complete name : Mysterious.Skin.2004.bdrip_[2.18].avi
Format : AVI
Format/Info : Audio Video Interleave
Format profile : OpenDML
File size : 2.17 GiB
Duration : 1h 45mn
Overall bit rate : 2 959 Kbps
Writing application : VirtualDubMod 1.5.10.3 | (build 2550/release)
Writing library : VirtualDubMod build 2550/release
Video
ID : 0
Format : MPEG-4 Visual
Format profile : Advanced Simple@L5
Format settings, BVOP : 1
Format settings, QPel : No
Format settings, GMC : No warppoints
Format settings, Matrix : Custom
Codec ID : XVID
Codec ID/Hint : XviD
Duration : 1h 45mn
Bit rate : 2 174 Kbps
Width : 704 pixels
Height : 400 pixels
Display aspect ratio : 16:9
Frame rate : 23.976 (23976/1000) fps
Color space : YUV
Chroma subsampling : 4:2:0
Bit depth : 8 bits
Scan type : Progressive
Compression mode : Lossy
Bits/(Pixel*Frame) : 0.322
Stream size : 1.60 GiB (73%)
Writing library : XviD 73
Audio #1
ID : 1
Format : AC-3
Format/Info : Audio Coding 3
Mode extension : CM (complete main)
Format settings, Endianness : Big
Codec ID : 2000
Duration : 1h 45mn
Bit rate mode : Constant
Bit rate : 384 Kbps
Channel(s) : 6 channels
Channel positions : Front: L C R, Side: L R, LFE
Sampling rate : 48.0 KHz
Frame rate : 31.250 fps (1536 spf)
Compression mode : Lossy
Stream size : 289 MiB (13%)
Alignment : Split accross interleaves
Interleave, duration : 42 ms (1.00 video frame)
Interleave, preload duratio : 500 ms
Audio #2
ID : 2
Format : AC-3
Format/Info : Audio Coding 3
Mode extension : CM (complete main)
Format settings, Endianness : Big
Codec ID : 2000
Duration : 1h 45mn
Bit rate mode : Constant
Bit rate : 384 Kbps
Channel(s) : 6 channels
Channel positions : Front: L C R, Side: L R, LFE
Sampling rate : 48.0 KHz
Frame rate : 31.250 fps (1536 spf)
Compression mode : Lossy
Stream size : 289 MiB (13%)
Alignment : Split accross interleaves
Interleave, duration : 42 ms (1.00 video frame)
Interleave, preload duratio : 500 ms

   Похожие торренты   Торрент   Размер 
В этой теме нет новых непрочитанных сообщений. Идеальная кожа / Perfect Skin (Кевин Чикен) [2018, ужасы, триллер, BDRip] MVO / Мистика

9 | 0

1.46 ГБ

В этой теме нет новых непрочитанных сообщений. Что скрывает кожа / Where the Skin Lies (Майкл Бушери) [2017, ужасы, триллер, WEBDLRip] MVO / Мистика

1 | 0

1.37 ГБ

В этой теме нет новых непрочитанных сообщений. Загадочная история Бенджамина Баттона / The Curious Case of Benjamin Button (2008) BDRip 720p от HELLYWOOD

23 | 3

7.76 ГБ

В этой теме нет новых непрочитанных сообщений. Загадочная история Бенджамина Баттона / The Curious Case of Benjamin Button (2008) BDRip-AVC от HELLYWOOD

77 | 4

2.91 ГБ

В этой теме нет новых непрочитанных сообщений. Оленья кожа / Le daim (Квентин Дюпьё) [2019, драма, комедия, BDRip] DUB

40 | 0

1.37 ГБ

В этой теме нет новых непрочитанных сообщений. Путешествие 2: Таинственный остров / Journey 2: The Mysterious Island (2012) BDRip 1080p HEVC | 3D-Video | OU | D

11 | 2

11.04 ГБ

В этой теме нет новых непрочитанных сообщений. Савва Морозов. Загадочная смерть в Каннах (2010) IPTVRip от Pshichko66

0 | 0

653.46 МБ




Вы не можете начинать темы
Вы не можете отвечать на сообщения
Вы не можете редактировать свои сообщения
Вы не можете удалять свои сообщения
Вы не можете добавлять вложения

Перейти:  
Контактная информация: rstracker[пёсик]yandex.ru
 Вход
ppkBB3cker v.2 © 2008-2014 @ PPK
[ Time : 0.017s | 20 Queries | GZIP : Off ]

cron