img image001 image001 image001 image001 image001 image001 image001 image001 image001 image001 image001 image001 image001 image001 image001 image001

Planets Sun Sun Sun
Статистика раздачи
Автор: Nickolas3434 | Размер: 24.77 ГБ | Добавлен: 01 апр 2017
Раздают: 53    Качают: 8
Скачать торрент
Скачать торрент
Описание торрента

СообщениеДобавлено: 01 апр 2017 

Информация о фильме
Название: Монстр-траки
Оригинальное название: Monster Trucks
Год выхода: 2016
Жанр: Фантастика, боевик, комедия, семейный
Режиссер: Крис Уэдж
В ролях: Лукас Тилл, Джейн Леви, Томас Леннон, Бэрри Пеппер, Роб Лоу, Дэнни Гловер, Эми Райан, Холт МакКэллани, Фрэнк Уэйли, Алийа О’Брайен
О фильме:
Старшеклассник Трипп мечтает сбежать из скучного городка, где родился и вырос, и увлеченно собирает монстр-трак из обломков старых авто. И когда происшествие на буровой вышке высвобождает из-под земли удивительное создание, знающее толк в скорости, у Триппа появляется реальный шанс не только наконец-то изменить жизнь, но и обрести настоящего друга... Если, конечно, никто не вмешается.

Страна: США
Студия: Disruption Entertainment, Nickelodeon Movies, Paramount Animation, Paramount Pictures
Продолжительность: 01:44:44
Перевод: Дублированный | iTunes
Файл
Качество: BDRemux 1080p
Видео: MPEG-4 AVC, 1920x1080, 28.9 Mbit/s, 23.976 fps
Звук:
Аудио #01: 48 kHz, AC3, 5.1, 384 Kbps | Дублированный | iTunes | RUS |
Аудио #02: 48 kHz, TrueHD, 7.1, 4504 Kbps | Оригинал | ENG |
Субтитры: Русские (full, forced), английские (full, SDH)

General
Unique ID : 232686665428099966113038351420413574162 (0xAF0DD2585C092334A1B664E23C45FC12)
Complete name : F:VideoMonster.Trucks.2016.BDREMUX.1080p.ExKinoRay.mkv
Format : Matroska
Format version : Version 4 / Version 2
File size : 24.8 GiB
Duration : 1 h 44 min
Overall bit rate mode : Variable
Overall bit rate : 33.9 Mb/s
Encoded date : UTC 2017-04-01 09:04:01
Writing application : mkvmerge v10.0.0 ('To Drown In You') 64bit
Writing library : libebml v1.3.4 + libmatroska v1.4.5
Video
ID : 1
Format : AVC
Format/Info : Advanced Video Codec
Format profile : High@L4.1
Format settings, CABAC : Yes
Format settings, ReFrames : 2 frames
Codec ID : V_MPEG4/ISO/AVC
Duration : 1 h 44 min
Bit rate mode : Variable
Bit rate : 28.9 Mb/s
Width : 1 920 pixels
Height : 1 080 pixels
Display aspect ratio : 16:9
Frame rate mode : Constant
Frame rate : 23.976 (24000/1001) FPS
Color space : YUV
Chroma subsampling : 4:2:0
Bit depth : 8 bits
Scan type : Progressive
Bits/(Pixel*Frame) : 0.581
Stream size : 21.1 GiB (85%)
Language : English
Default : Yes
Forced : No
Audio #1
ID : 2
Format : AC-3
Format/Info : Audio Coding 3
Mode extension : CM (complete main)
Format settings, Endianness : Big
Codec ID : A_AC3
Duration : 1 h 44 min
Bit rate mode : Constant
Bit rate : 384 kb/s
Channel(s) : 6 channels
Channel positions : Front: L C R, Side: L R, LFE
Sampling rate : 48.0 kHz
Frame rate : 31.250 FPS (1536 spf)
Bit depth : 16 bits
Compression mode : Lossy
Delay relative to video : 10 ms
Stream size : 288 MiB (1%)
Title : iTunes
Language : Russian
Default : Yes
Forced : No
Audio #2
ID : 3
Format : Atmos / TrueHD
Codec ID : A_TRUEHD
Duration : 1 h 44 min
Bit rate mode : Variable
Bit rate : 4 504 kb/s
Maximum bit rate : 7 254 kb/s
Channel(s) : Object Based / 8 channels
Channel positions : Object Based / Front: L C R, Side: L R, Back: L R, LFE
Sampling rate : / 48.0 kHz
Frame rate : 1 200.000 FPS (40 spf)
Compression mode : Lossless
Stream size : 3.30 GiB (13%)
Title : Original
Language : English
Default : No
Forced : No
Text #1
ID : 4
Format : UTF-8
Codec ID : S_TEXT/UTF8
Codec ID/Info : UTF-8 Plain Text
Duration : 1 h 34 min
Bit rate : 0 b/s
Count of elements : 3
Stream size : 144 Bytes (0%)
Title : Forced
Language : Russian
Default : Yes
Forced : No
Text #2
ID : 5
Format : UTF-8
Codec ID : S_TEXT/UTF8
Codec ID/Info : UTF-8 Plain Text
Duration : 1 h 37 min
Bit rate : 57 b/s
Count of elements : 823
Stream size : 41.0 KiB (0%)
Title : Full
Language : Russian
Default : No
Forced : No
Text #3
ID : 6
Format : UTF-8
Codec ID : S_TEXT/UTF8
Codec ID/Info : UTF-8 Plain Text
Duration : 1 h 35 min
Bit rate : 40 b/s
Count of elements : 977
Stream size : 28.1 KiB (0%)
Title : Full
Language : English
Default : No
Forced : No
Text #4
ID : 7
Format : UTF-8
Codec ID : S_TEXT/UTF8
Codec ID/Info : UTF-8 Plain Text
Duration : 1 h 35 min
Bit rate : 46 b/s
Count of elements : 1249
Stream size : 32.3 KiB (0%)
Title : SDH
Language : English
Default : No
Forced : No
Menu
00:00:00.000 : en:00:00:00.000
00:06:09.369 : en:00:06:09.369
00:11:33.735 : en:00:11:33.735
00:18:58.971 : en:00:18:58.971
00:24:50.489 : en:00:24:50.489
00:34:57.137 : en:00:34:57.137
00:43:16.928 : en:00:43:16.928
00:47:54.872 : en:00:47:54.872
00:53:32.000 : en:00:53:32.000
00:58:24.668 : en:00:58:24.668
01:05:10.698 : en:01:05:10.698
01:13:26.652 : en:01:13:26.652
01:20:47.634 : en:01:20:47.634
01:26:58.505 : en:01:26:58.505
01:33:13.671 : en:01:33:13.671
01:38:44.669 : en:01:38:44.669

Релиз от: Автор релиза: Подпишись на меня:



   Похожие торренты   Торрент   Размер 
В этой теме нет новых непрочитанных сообщений. Монстр-траки / Monster Trucks (2016) BDRip 1080p от ExKinoRay | iTunes

393 | 7

7.16 ГБ

В этой теме нет новых непрочитанных сообщений. Монстр-траки / Monster Trucks (2016) BDRip от ExKinoRay | iTunes

51 | 11

1.41 ГБ

В этой теме нет новых непрочитанных сообщений. Монстр-траки / Monster Trucks (2016) BDRip-AVC от ExKinoRay | iTunes

23 | 8

1.97 ГБ

В этой теме нет новых непрочитанных сообщений. Монстр-траки / Monster Trucks (2016) BDRip от ExKinoRay | iTunes

64 | 6

2.14 ГБ

В этой теме нет новых непрочитанных сообщений. Монстр-траки / Monster Trucks (2016) BDRip 720p от ExKinoRay | iTunes

483 | 8

3.95 ГБ

В этой теме нет новых непрочитанных сообщений. Монстр-траки / Monster Trucks (2016) BDRemux 1080p от OlLanDGroup | Лицензия

58 | 21

24.95 ГБ

В этой теме нет новых непрочитанных сообщений. Монстр-траки / Monster Trucks (2016) BDRip 1080p | iTunes

65 | 9

7.93 ГБ




Вы не можете начинать темы
Вы не можете отвечать на сообщения
Вы не можете редактировать свои сообщения
Вы не можете удалять свои сообщения
Вы не можете добавлять вложения

Перейти:  
 Вход
ppkBB3cker v.2 © 2008-2014 @ PPK
[ Time : 0.074s | 17 Queries | GZIP : Off ]

cron