img image001 image001 image001 image001 image001 image001 image001 image001 image001 image001 image001 image001 image001 image001 image001

Planets Sun Sun Sun

COVID-19 - Последняя информация о коронавирусе на сайте Минздрава


Статистика раздачи
Автор: Nickolas3434 | Размер: 17.41 ГБ | Добавлен: 15 апр 2017
Раздают: 2    Качают: 3
Скачать торрент
Скачать торрент
Описание торрента

СообщениеДобавлено: 15 апр 2017 

Секс Гуру / The Love Guru
Страна: США
Производство: Paramount Pictures, Goldcrest Pictures, Nomoneyfun Films, Spyglass Entertainment
Год выпуска: 2008
Жанр: комедия
Продолжительность: 01:26:36
Режиссер: Марко Шнабель
Авторы сценария: Майк Майерс, Грэм Горди
В ролях: Майк Майерс, Джессика Альба, Джастин Тимберлэйк, Романи Малко, Миган Гуд, Омид Джалили, Бен Кингсли, Джессика Симпсон
Описание: Питка, воспитанный многочисленными гуру вне родной культуры американец, возвращается в Штаты в надежде стать популярным психотерапевтом. Первым вызовом его способностям станет трудный случай с хоккеистом-профи, от которого жена ушла к конкуренту...

Перевод: Профессиональный (двухголосый, закадровый) | НТВ+ + Любительский (двухголосый)
Субтитры: нет

Качество: BDRemux 1080p
Формат: МКV
Видео кодек: AVC
Аудио кодек: АС3 | DTS
Видео: 1920x1080 (16:9), 23.976 fps, MPEG-4 AVC ~27.1 Мbps avg
Аудио №1: 48.0 kHz, AC3 Dolby Digital, 3/2 (L,C,R,l,r) + LFE ch, ~448 kbps | RUS / DVO / Р2
Аудио №2: 48.0 kHz, AC3 Dolby Digital, 3/2 (L,C,R,l,r) + LFE ch, ~448 kbps | RUS / DVO / L2
Аудио №3: 48.0 kHz, Digital Theater Systems Master Audio, 3/2 (L,C,R,l,r) + LFE ch, ~1749 kbps / 16-bits | ENG
Бюджет: $62 000 000
Дата премьеры (мир): 20 июня 2008

UniqueID : 179484331337757317932655921658182331309 (0x87076CC17934ADEC8A8C612B2DA16BAD)
Complete name : The.Love.Guru.2008.1080p.Bluray.AVC.Remux.mkv
Format : Matroska
File size : 17.4 GiB
Duration : 1h 26mn
Overall bit rate : 28.8 Mbps
Movie name : The.Love.Guru.2008.1080p.Bluray.AVC.Remux
Encoded date : UTC 2011-03-08 23:33:05
Writing application : mkvmerge v3.2.0 ('Beginnings') built on Feb 12 2010 16:46:17
Writing library : libebml v0.7.9 + libmatroska v0.8.1
Video
ID : 1
Format : AVC
Format/Info : Advanced Video Codec
Format profile : High@L4.1
Format settings, CABAC : Yes
Format settings, ReFrames : 4 frames
Codec ID : V_MPEG4/ISO/AVC
Duration : 1h 26mn
Bit rate mode : Variable
Maximum bit rate : 30.0 Mbps
Width : 1 920 pixels
Height : 1 080 pixels
Display aspect ratio : 16:9
Frame rate : 23.976 fps
Standard : NTSC
Color space : YUV
Chroma subsampling : 4:2:0
Bit depth : 8 bits
Scan type : Progressive
Title : uralmix
Language : Russian
Color primaries : BT.709-5, BT.1361, IEC 61966-2-4, SMPTE RP177
Transfer characteristics : BT.709-5, BT.1361
Matrix coefficients : BT.709-5, BT.1361, IEC 61966-2-4 709, SMPTE RP177
Audio #1
ID : 2
Format : AC-3
Format/Info : Audio Coding 3
Mode extension : CM (complete main)
Codec ID : A_AC3
Duration : 1h 26mn
Bit rate mode : Constant
Bit rate : 448 Kbps
Channel(s) : 6 channels
Channel positions : Front: L C R, Side: L R, LFE
Sampling rate : 48.0 KHz
Bit depth : 16 bits
Compression mode : Lossy
Stream size : 278 MiB (2%)
Title : НТВ+ (Наталья Казначеева и Денис Некрасов)
Language : Russian
Audio #2
ID : 3
Format : AC-3
Format/Info : Audio Coding 3
Mode extension : CM (complete main)
Codec ID : A_AC3
Duration : 1h 26mn
Bit rate mode : Constant
Bit rate : 448 Kbps
Channel(s) : 6 channels
Channel positions : Front: L C R, Side: L R, LFE
Sampling rate : 48.0 KHz
Bit depth : 16 bits
Compression mode : Lossy
Stream size : 278 MiB (2%)
Title : любительский двухголосый
Language : Russian
Audio #3
ID : 4
Format : DTS
Format/Info : Digital Theater Systems
Format profile : MA
Codec ID : A_DTS
Duration : 1h 26mn
Bit rate mode : Variable
Channel(s) : 6 channels
Channel positions : Front: L C R, Side: L R, LFE
Sampling rate : 48.0 KHz
Bit depth : 16 bits
Compression mode : Lossy
Title : english
Language : English

   Похожие торренты   Торрент   Размер 
В этой теме нет новых непрочитанных сообщений. Секс Гуру / The Love Guru (2008) BDRip 1080p | Р2, L2

20 | 8

8.71 ГБ

В этой теме нет новых непрочитанных сообщений. Секс Гуру / The Love Guru (2008) BDRip 720p от New-Team | P2, L2

11 | 1

4.91 ГБ

В этой теме нет новых непрочитанных сообщений. Гуру / The Guru (2002) DVDRip-AVC | P

0 | 1

2.18 ГБ

В этой теме нет новых непрочитанных сообщений. Секс-пленка / sxtape (2013) BDRemux 1080p от HDRussia | L, L1

5 | 0

17.46 ГБ

В этой теме нет новых непрочитанных сообщений. Mentiras y gordas / Секс, вечеринки и ложь (2009) BDRemux 1080p | P2

4 | 3

19.75 ГБ

В этой теме нет новых непрочитанных сообщений. Море любви / Sea of Love (1989) BDRemux 1080p | P, P2, A

7 | 3

39.45 ГБ

В этой теме нет новых непрочитанных сообщений. 007: Из России с любовью / From Russia with Love (1963) BDRemux 1080p | D, P, P2, A

0 | 7

34.51 ГБ




Вы не можете начинать темы
Вы не можете отвечать на сообщения
Вы не можете редактировать свои сообщения
Вы не можете удалять свои сообщения
Вы не можете добавлять вложения

Перейти:  
Контактная информация: rstracker[пёсик]yandex.ru
 Вход
ppkBB3cker v.2 © 2008-2014 @ PPK
[ Time : 0.040s | 19 Queries | GZIP : Off ]

cron