img image001 image001 image001 image001 image001 image001 image001 image001 image001 image001 image001 image001 image001 image001 image001

Planets Sun Sun Sun
Статистика раздачи
Автор: Nickolas3434 | Размер: 5.94 ГБ | Добавлен: 22 апр 2017
Раздают: 42    Качают: 16
Скачать торрент
Скачать торрент
Описание торрента

СообщениеДобавлено: 22 апр 2017 

Глубокое погружение

The Rift

«'You Can't Hold your Breath & Scream at the Same Time'»



Страна: Испания, США
Жанр: ужасы, фантастика, боевик, триллер, приключения
Год выпуска: 1990
Продолжительность: 01:23:03
Перевод: Авторский (одноголосый)


Режиссер: Хуан Пике Симон / Juan Piquer Simón


В ролях: Джек Скалия (Wick Hayes), Р. Ли Эрми (Capt. Phillips), Рэй Уайз (Robbins), Дебора Эдейр (Lt. Nina Crowley), Джон Тоулс-Бей (Joe Kane), Эли Пугет (Ana Rivera), Эмилио Линдер (Philippe), Тони Исберт (Fleming), Альваро Лабра (Carlo), Луис Лоренсо (Francisco), Франк Бранья (Muller), Pocholo Martínez-Bordiú (Sven)


Описание: После того, как затонула подводная лодка «Сирена-1», на её поиски отправляется другая подлодка под названием «Сирена-2». Снарядиться в экспедицию на ней уговаривают проектировщика первой субмарины, Вика Хэйеса. Экипаж с большим трудом погружается в подводную расщелину, слегка поцарапав корпус, и вскоре сталкивается с тем, что на огромной глубине существует жизнь, причём жизнь вовсе недружелюбная. Вслед за серией погружений обнаруживаются плотоядные морские водоросли, а ещё чуть позже - масса зловредных и охочих до человеческой плоти организмов, которые стали результатом генетических экспериментов над животными на «Сирене-1»...



MPAA: R - Лицам до 17 лет обязательно присутствие взрослого


Семпл





Качество: BDRip
Контейнер: MKV
Видео: AVC, 1200x720 (1.667), 9644 kbps, 23,976 fps, 0,466 bpp
Аудио №1: русский / AC3 / 2.0 / 48 kHz / 192 kbps / AVO ( Дохалов )
Аудио №2: английский / AC3 / 2.0 / 48 kHz / 192 kbps
Навигация по главам: есть


****************************************************
x264 [info]: frame I:781 Avg QP:14.65 size:120605
x264 [info]: frame P:19844 Avg QP:15.54 size: 75169
x264 [info]: frame B:98847 Avg QP:17.82 size: 46001
****************************************************
Формат : Matroska
Версия формата : Version 2
Размер файла : 5,94 Гбайт
Продолжительность : 1 ч. 23 м.
Общий поток : 10,2 Мбит/сек
Название фильма : = Глубокое погружение / The Rift (1990) BDRip 720p - KORSAR =
Дата кодирования : UTC 2017-04-15 09:44:04
Программа кодирования : mkvmerge v5.8.0 ('No Sleep / Pillow') built on Sep 2 2012 15:37:04
Библиотека кодирования : libebml v1.2.3 + libmatroska v1.3.0
Attachment : Yes
Видео
Идентификатор : 1
Формат : AVC
Формат/Информация : Advanced Video Codec
Профиль формата : High@L4.1
Параметр CABAC формата : Да
Параметр ReFrames формата : 9 кадров
Идентификатор кодека : V_MPEG4/ISO/AVC
Продолжительность : 1 ч. 23 м.
Битрейт : 9644 Кбит/сек
Ширина : 1200 пикселей
Высота : 720 пикселей
Соотношение сторон : 1,667
Режим частоты кадров : Постоянный
Частота кадров : 23,976 кадра/сек
Цветовое пространство : YUV
Субдискретизация насыщенности : 4:2:0
Битовая глубина : 8 бит
Тип развёртки : Прогрессивная
Бит/(Пиксели*Кадры) : 0.466
Размер потока : 5,60 Гбайт (94%)
Заголовок : Глубокое погружение / The Rift (1990) BDRip 720p - KORSAR
Библиотека кодирования : x264 core 146 r2538 121396c
Настройки программы : cabac=1 / ref=9 / deblock=1:-2:-2 / analyse=0x3:0x113 / me=umh / subme=11 / psy=1 / psy_rd=1.00:0.05 / mixed_ref=1 / me_range=32 / chroma_me=1 / trellis=2 / 8x8dct=1 / cqm=0 / deadzone=21,11 / fast_pskip=0 / chroma_qp_offset=-3 / threads=12 / lookahead_threads=3 / sliced_threads=0 / nr=0 / decimate=1 / interlaced=0 / bluray_compat=0 / constrained_intra=0 / bframes=12 / b_pyramid=2 / b_adapt=2 / b_bias=0 / direct=3 / weightb=1 / open_gop=0 / weightp=2 / keyint=240 / keyint_min=23 / scenecut=40 / intra_refresh=0 / rc=crf / mbtree=0 / crf=17.0 / qcomp=0.60 / qpmin=0 / qpmax=69 / qpstep=4 / ip_ratio=1.40 / pb_ratio=1.30 / aq=3:0.75
Язык : English
Default : Да
Forced : Нет
Основные цвета : BT.709
Характеристики трансфера : BT.709
Коэффициенты матрицы : BT.709
Аудио #1
Идентификатор : 2
Формат : AC-3
Формат/Информация : Audio Coding 3
Расширение режима : CM (complete main)
Параметр Endianness формата : Big
Идентификатор кодека : A_AC3
Продолжительность : 1 ч. 23 м.
Вид битрейта : Постоянный
Битрейт : 192 Кбит/сек
Каналы : 2 канала
Расположение каналов : Front: L R
Частота : 48,0 КГц
Битовая глубина : 16 бит
Метод сжатия : С потерями
Размер потока : 114 Мбайт (2%)
Заголовок : AVO ( Дохалов )
Язык : Russian
Default : Да
Forced : Нет
Аудио #2
Идентификатор : 3
Формат : AC-3
Формат/Информация : Audio Coding 3
Расширение режима : CM (complete main)
Параметр Endianness формата : Big
Идентификатор кодека : A_AC3
Продолжительность : 1 ч. 23 м.
Вид битрейта : Постоянный
Битрейт : 192 Кбит/сек
Каналы : 2 канала
Расположение каналов : Front: L R
Частота : 48,0 КГц
Битовая глубина : 16 бит
Метод сжатия : С потерями
Размер потока : 114 Мбайт (2%)
Язык : English
Default : Нет
Forced : Нет
Меню
00:00:00.000 : en:Chapter 1
00:04:31.605 : en:Chapter 2
00:09:19.601 : en:Chapter 3
00:16:48.257 : en:Chapter 4
00:20:09.875 : en:Chapter 5
00:27:19.888 : en:Chapter 6
00:33:27.506 : en:Chapter 7
00:36:16.007 : en:Chapter 8
00:41:52.677 : en:Chapter 9
00:49:51.030 : en:Chapter 10
00:57:54.179 : en:Chapter 11
01:04:39.876 : en:Chapter 12
01:11:27.492 : en:Chapter 13
01:20:31.744 : en:Chapter 14









   Похожие торренты   Торрент   Размер 
В этой теме нет новых непрочитанных сообщений. Глубокое погружение / The Rift (1990) BDRip от Sem-te | A

9 | 0

1.46 ГБ

В этой теме нет новых непрочитанных сообщений. Глубокое погружение / The Rift (1990) BDRip-AVC | A

14 | 3

744.3 МБ

В этой теме нет новых непрочитанных сообщений. Глубокое погружение / The Rift (1990) BDRip-AVC от k.e.n | Дохалов

8 | 0

2.19 ГБ

В этой теме нет новых непрочитанных сообщений. Глубокое погружение / The Rift (1990) DVDRip от NovaLan

42 | 2

1.37 ГБ

В этой теме нет новых непрочитанных сообщений. Глубокое погружение / The Rift (1990) BDRemux 1080p | А

0 | 0

18.31 ГБ

В этой теме нет новых непрочитанных сообщений. Глубокое погружение / La grieta (1989) DVDRip

35 | 4

699.99 МБ

В этой теме нет новых непрочитанных сообщений. Квартирный вопрос. Глубокое погружение [эфир от 07.05] (2011) SATRip

0 | 4

496.09 МБ




Вы не можете начинать темы
Вы не можете отвечать на сообщения
Вы не можете редактировать свои сообщения
Вы не можете удалять свои сообщения
Вы не можете добавлять вложения

Перейти:  
Для Мосгорсуда, Роскомнадзора и рекламодателей: mosgorsud-torrent[собачка]yandex.ru
 Вход
ppkBB3cker v.2 © 2008-2014 @ PPK
[ Time : 0.058s | 18 Queries | GZIP : Off ]

Торрент трекер RUTOR.IN, Не можете зайти на rutor.org? Какой новый адрес рутор? Какое зеркало рутор? Не работает rutor.org и зеркала? Тогда наш торрент специально для вас. Rutor.in неофициальное зеркало rutor. В случае если у Вас заблокирован rutor или вдруг Вы не можете на него зайти, то Вы без труда сможете скачать бесплатно и без рекламы последние новинки кино, игр, сериалов и прочего у нас, на Rutor.in. Не нужно использовать прокси, чтобы зайти на рутор, достаточно воспользоваться нашим ресурсом. Все новые фильмы, игры, сериалы, книги и музыка за 2013 и 2014 годы через торрент бесплатно. Скачивайте фильмы в хорошем качестве, игры для пк, xbox, playstation без регистрации. У нас вы найдете новые Зарубежные сериалы и Русские сериалы 2013, 2014, 2015 годов. Оставайтесь с нами, качайте любимые фильмы, игры, сериалы, книги и музыку.
cron