img image001 image001 image001 image001 image001 image001 image001 image001 image001 image001 image001 image001 image001 image001 image001

Planets Sun Sun Sun
Статистика раздачи
Автор: Nickolas3434 | Размер: 2.16 ГБ | Добавлен: 30 апр 2017
Раздают: 73    Качают: 1
Скачать торрент
Скачать торрент
Описание торрента

СообщениеДобавлено: 30 апр 2017 

Информация о фильме
Название: Воспоминания об убийстве
Оригинальное название: Salinui chueok / Memories of Murder
Год выхода: 2003
Жанр: детектив, криминал, драма, триллер
Режиссер: Пон Джун-хо
В ролях: Сон Кан-хо, Ким Сан Ген, Ким Рве Ха, Сон Чжэ-хо, Бён Хэ Бон, Сео-хи Ко, Но-сик Парк, Пак Хэ Иль, Чон-рел Чои, Ми-сон Чон
О фильме:
В 1986 году в корейской глубинке две местные женщины были убиты одним и тем же извращённым способом. Детектив Пак Ду-ман и его помощник Чо Ён-гу со всем возможным рвением пытаются найти убийцу. Точнее — заставить признаться в содеянном любого подозреваемого, и делают это самыми жестокими методами. После того, как дело предаётся широкой огласке, полицейские неохотно соглашаются принять помощь сеульского детектива Со Тхэ-юна.

Страна: Корея Южная
Студия: CJ Entertainment, Muhan Investment, Sidus
Продолжительность: 02:11:08
Перевод: Профессиональный (двухголосый закадровый)- BBC Saint-Petersburg
Файл
Кодек: AVC
Качество: BDRip-AVC
Видео: 1024x552, 1907 kbps, 23,976 fps, 0,141 Bits/(Pixel*Frame)
Звук: AC3, 48 kHz, 6 ch, 448 kbps - DVO
Субтитры: Нет
Общее
Unique ID : 196996375154098766359533333345401192259 (0x94341F2D44E5758C830908C0E97E3F43)
Complete name : F:Memories.Of.Murder.2003.BDRip-AVC_by_Bathory.mkv
Format : Matroska
Format version : Version 4 / Version 2
File size : 2,16 Гбайт
Duration : 2 ч. 11 м.
Overall bit rate : 2357 Кбит/сек
Encoded date : UTC 2017-04-29 10:32:31
Writing application : mkvmerge v8.6.1 ('Flying') 64bit
Writing library : libebml v1.3.3 + libmatroska v1.4.4
Видео
ID : 1
Format : AVC
Format/Info : Advanced Video Codec
Format profile : High@L4.1
Format settings, CABAC : Да
Format settings, ReFrames : 11 кадров
Codec ID : V_MPEG4/ISO/AVC
Duration : 2 ч. 11 м.
Bit rate : 1907 Кбит/сек
Width : 1024 пикселя
Height : 552 пикселя
Display aspect ratio : 1,85:1
Frame rate mode : Постоянный
Frame rate : 23,976 (24000/1001) кадра/сек
Color space : YUV
Chroma subsampling : 4:2:0
Bit depth : 8 бит
Scan type : Прогрессивная
Bits/(Pixel*Frame) : 0.141
Stream size : 1,75 Гбайт (81%)
Writing library : x264 core 148 r2744 b97ae06
Encoding settings : cabac=1 / ref=11 / deblock=1:-1:-1 / analyse=0x3:0x133 / me=umh / subme=11 / psy=1 / psy_rd=1.10:0.15 / mixed_ref=1 / me_range=32 / chroma_me=1 / trellis=2 / 8x8dct=1 / cqm=0 / deadzone=21,11 / fast_pskip=0 / chroma_qp_offset=-3 / threads=12 / lookahead_threads=3 / sliced_threads=0 / nr=0 / decimate=0 / interlaced=0 / bluray_compat=0 / constrained_intra=0 / bframes=16 / b_pyramid=2 / b_adapt=2 / b_bias=0 / direct=3 / weightb=1 / open_gop=0 / weightp=2 / keyint=240 / keyint_min=23 / scenecut=0 / intra_refresh=0 / rc_lookahead=60 / rc=2pass / mbtree=0 / bitrate=1907 / ratetol=1.0 / qcomp=0.70 / qpmin=0 / qpmax=51 / qpstep=4 / cplxblur=15.0 / qblur=0.5 / vbv_maxrate=50000 / vbv_bufsize=62500 / nal_hrd=none / filler=0 / ip_ratio=1.40 / pb_ratio=1.30 / aq=2:1.00
Default : Да
Forced : Нет
Аудио
ID : 2
Format : AC-3
Format/Info : Audio Coding 3
Mode extension : CM (complete main)
Format settings, Endianness : Big
Codec ID : A_AC3
Duration : 2 ч. 11 м.
Bit rate mode : Постоянный
Bit rate : 448 Кбит/сек
Channel(s) : 6 каналов
Channel positions : Front: L C R, Side: L R, LFE
Sampling rate : 48,0 КГц
Frame rate : 31,250 кадров/сек (1536 spf)
Compression mode : С потерями
Stream size : 420 Мбайт (19%)
Title : DVO RUS
Language : Russian
Default : Да
Forced : Нет


Автор рипа: _Bathory_



   Похожие торренты   Торрент   Размер 
В этой теме нет новых непрочитанных сообщений. Воспоминания об убийстве / Salinui chueok (Memories of Murder) (2003) BDRip

30 | 3

1.46 ГБ

В этой теме нет новых непрочитанных сообщений. Воспоминания об убийстве / Memories of Murder / Salinui chueok (2003) BDRip от HELLYWOOD

16 | 11

2.59 ГБ

В этой теме нет новых непрочитанных сообщений. Воспоминания об убийстве / Memories of Murder / Salinui chueok (2003) BDRip 1080p | P2

3 | 3

10.03 ГБ

В этой теме нет новых непрочитанных сообщений. Воспоминания об убийстве / Memories of Murder / Salinui chueok (2003) BDRip 720p

5 | 3

7.94 ГБ

В этой теме нет новых непрочитанных сообщений. Воспоминания об убийстве / Memories of Murder / Salinui chueok (2003) BDRip 720p от IIIKOJIO3ABP

0 | 2

10.1 ГБ

В этой теме нет новых непрочитанных сообщений. Воспоминания об убийстве / Memories of Murder / Salinui chueok (2003) HDRip от Scarabey | P2

127 | 22

1.45 ГБ

В этой теме нет новых непрочитанных сообщений. Воспоминания об убийстве / Salinui chueok (2003) HDRip от Scarabey | P2

25 | 4

798.83 МБ




Вы не можете начинать темы
Вы не можете отвечать на сообщения
Вы не можете редактировать свои сообщения
Вы не можете удалять свои сообщения
Вы не можете добавлять вложения

Перейти:  
Для Мосгорсуда, Роскомнадзора и рекламодателей: mosgorsud-torrent[собачка]yandex.ru
 Вход
ppkBB3cker v.2 © 2008-2014 @ PPK
[ Time : 0.042s | 17 Queries | GZIP : Off ]

cron