img image001 image001 image001 image001 image001 image001 image001 image001 image001 image001 image001 image001 image001 image001 image001

Planets Sun Sun Sun

COVID-19 - Последняя информация о коронавирусе на сайте Минздрава


Статистика раздачи
Автор: Nickolas3434 | Размер: 5.14 ГБ | Добавлен: 30 апр 2017
Раздают: 40    Качают: 11
Скачать торрент
Скачать торрент
Описание торрента

СообщениеДобавлено: 30 апр 2017 

Информация о фильме
Название: Когда наступит конец света
Оригинальное название: Bis ans Ende der Welt
Год выхода: 1991
Жанр: Драма, Фантастика
Режиссер: Вим Вендерс
В ролях: Уильям Харт, Сольвейг Доммартин, Сэм Нилл, Макс Фон Зюдов, Жанна Моро, Рудигер Воглер
Претенциозная трехчасовая футурологическо-экзистенциалистская картина знаменитого немецкого режиссера Вима Вендерса и продюсера Анатоля Домана, до того работавших вместе над картиной "НЕБО НАД БЕРЛИНОМ". Критики назвали ее интеллектуальной и эстетской (как и другие фильмы Вендерса). Созданная кинематографистами США, Португалии, Италии, Японии, Китая, при весомом участии NHK и Sony, без которых были бы невозможны используемые в фильме компьютерные спецэффекты, картина является пророчеством о ждущих человечество бедах.

Страна: Германия, Франция, Австралия
Продолжительность: 4:38:50 (01:37:00 + 01:31:29 + 01:30:21)
Перевод: Профессиональный (многоголосый закадровый) - Омикрон
Файл
Кодек: H264
Качество: DVDRip
Видео: 1024x576, 16:9, 25 fps, ~1725 kbps avg
Звук: AC3, 448 kbps, 48.0 kHz, 5:1 ch.
AC3, 448 kbps, 48.0 kHz, 5:1 ch. (English)-отдельными файлами
Субтитры: Русские
Teil 1
Teil 2
Teil 3

General
Unique ID : 240017801268673673491149344870446291545 (0xB491BF3FA5BC5A2BBFCA653200665A59)
Complete name : D:Т-файлыBis ans Ende der WeltTeil 2.mkv
Format : Matroska
Format version : Version 2
File size : 1.42 GiB
Duration : 1h 31mn
Overall bit rate : 2 224 Kbps
Encoded date : UTC 2017-04-28 20:16:52
Writing application : mkvmerge v4.0.0 ('The Stars were mine') сборка от Jun 6 2010 16:18:42
Writing library : libebml v1.0.0 + libmatroska v1.0.0
Video
ID : 1
Format : AVC
Format/Info : Advanced Video Codec
Format profile : High@L4.1
Format settings, CABAC : Yes
Format settings, ReFrames : 12 frames
Codec ID : V_MPEG4/ISO/AVC
Duration : 1h 31mn
Bit rate : 1 775 Kbps
Width : 1 024 pixels
Height : 576 pixels
Display aspect ratio : 16:9
Frame rate mode : Constant
Frame rate : 25.000 fps
Color space : YUV
Chroma subsampling : 4:2:0
Bit depth : 8 bits
Scan type : MBAFF
Scan order : Top Field First
Bits/(Pixel*Frame) : 0.120
Stream size : 1.11 GiB (78%)
Title : Bis ans Ende der Welt. Teil 2.by Dafty.
Writing library : x264 core 148 r2762M 90a61ec
Encoding settings : cabac=1 / ref=12 / deblock=1:-1:-1 / analyse=0x3:0x133 / me=umh / subme=10 / psy=1 / psy_rd=1.05:0.15 / mixed_ref=1 / me_range=32 / chroma_me=1 / trellis=2 / 8x8dct=1 / cqm=0 / deadzone=6,6 / fast_pskip=0 / chroma_qp_offset=-3 / threads=7 / lookahead_threads=1 / sliced_threads=0 / nr=0 / decimate=0 / interlaced=tff / bluray_compat=0 / constrained_intra=0 / bframes=8 / b_pyramid=2 / b_adapt=2 / b_bias=0 / direct=3 / weightb=1 / open_gop=0 / weightp=0 / keyint=250 / keyint_min=25 / scenecut=40 / intra_refresh=0 / rc=2pass / mbtree=0 / bitrate=1775 / ratetol=1.0 / qcomp=0.80 / qpmin=3 / qpmax=69 / qpstep=4 / cplxblur=20.0 / qblur=0.5 / ip_ratio=1.10 / pb_ratio=1.10 / aq=2:0.50
Language : German
Default : No
Forced : No
Audio
ID : 2
Format : AC-3
Format/Info : Audio Coding 3
Mode extension : CM (complete main)
Format settings, Endianness : Big
Codec ID : A_AC3
Duration : 1h 31mn
Bit rate mode : Constant
Bit rate : 448 Kbps
Channel(s) : 6 channels
Channel positions : Front: L C R, Side: L R, LFE
Sampling rate : 48.0 KHz
Compression mode : Lossy
Stream size : 293 MiB (20%)
Language : Russian
Default : No
Forced : No
Text
ID : 3
Format : UTF-8
Codec ID : S_TEXT/UTF8
Codec ID/Info : UTF-8 Plain Text
Language : Russian
Default : No
Forced : No
Menu
00:00:00.000 : :Глава 1
00:13:21.120 : :Глава 2
00:19:43.280 : :Глава 3
00:24:46.040 : :Глава 4
00:30:04.159 : :Глава 5
00:39:14.160 : :Глава 6
00:46:17.480 : :Глава 7
00:50:31.120 : :Глава 8
00:58:31.799 : :Глава 9
01:08:15.720 : :Глава 10
01:12:13.880 : :Глава 11
01:18:11.440 : :Глава 12
01:24:38.120 : :Глава 13
01:31:29.040 : :Глава 14

   Похожие торренты   Торрент   Размер 
В этой теме нет новых непрочитанных сообщений. Засекреченные списки. Где наступит конец света: 7 самых гиблых мест (Эфир от 22.07.2017) (Рен ТВ) [2017, документальный, SATRip]

2 | 0

1.2 ГБ

В этой теме нет новых непрочитанных сообщений. Безумие / Wild Side (1995) DVDRip | Director's cut | A

51 | 9

1.44 ГБ

В этой теме нет новых непрочитанных сообщений. Через тернии к звёздам (1980) DVDRip | Original director's cut |

36 | 4

2.23 ГБ

В этой теме нет новых непрочитанных сообщений. 37,2º утром / 37°2 le matin / Betty Blue (1986) DVDRip | Full Director's cut | P1

56 | 12

2.83 ГБ

В этой теме нет новых непрочитанных сообщений. Взрослые игры / Das Ende der Wahrheit (Филипп Лайнеман) [2019, триллер, HDRip] MVO

2 | 0

1.37 ГБ

В этой теме нет новых непрочитанных сообщений. Кэндимэн 3: День мертвых [Режиссерская версия] / Candyman: Day of the Dead [Director's Cut] (Тури Мейер) [1999, ужасы, триллер, DVDRip] AVO

2 | 0

1.43 ГБ

В этой теме нет новых непрочитанных сообщений. Слезы солнца [Режиссерская версия] / Tears of the Sun [Director's Cut] (Антуан Фукуа) [2003, боевик, триллер, драма, военный, DVDRip-AVC] 2xAVO

0 | 5

2.9 ГБ




Вы не можете начинать темы
Вы не можете отвечать на сообщения
Вы не можете редактировать свои сообщения
Вы не можете удалять свои сообщения
Вы не можете добавлять вложения

Перейти:  
Контактная информация: rstracker[пёсик]yandex.ru
 Вход
ppkBB3cker v.2 © 2008-2014 @ PPK
[ Time : 0.036s | 18 Queries | GZIP : Off ]

cron