img image001 image001 image001 image001 image001 image001 image001 image001 image001 image001 image001 image001 image001 image001 image001 image001
Planets Sun Sun Sun
Статистика раздачи
Автор: Nickolas3434 | Размер: 1.38 ГБ | Добавлен: 04 май 2017
Раздают: 50    Качают: 5
Скачать торрент
Скачать торрент
Описание торрента

СообщениеДобавлено: 04 май 2017 

Железнодорожные тигры / Railroad Tigers / Tiedao fei hu
Страна: Китай
Производство: Shanghai Film Group, J.Q. Pictures, Beijing Going Zoom Media, Sparkle Roll Media
Год выпуска: 2016
Жанр: боевик, комедия, военный
Продолжительность: 02:04:15
Режиссер: Дин Шэн
Авторы сценария: Хэ Кэкэ, Дин Шэн
В ролях: Джеки Чан, Хуан Цзытао, Джейси Чан, Ван Кай, Хироюки Икэути, Сан Пин, Алан Нг, Сюй Фань, Даррен Ван, Кодзи Яно
Описание: В декабре 1941 года Япония расширяет оккупацию соседних стран в Юго-Восточной Азии. Железная дорога от Тяньцзинь Нанкин в Восточном Китае стала ключевым маршрутом для военных перевозок под усиленной охраной японских солдат. Работник железной дороги Ма Юань организовывает команду борцов за свободу. Используя свои глубокие знания железнодорожных сетей, он со своими людьми устраивает засады для японских солдат и ворует их припасы, чтобы накормить голодающих соотечественников. Местные называют своих героев «железнодорожными тиграми». И когда борцы за свободу оказываются на неправильной стороне путей при отправке подкрепления японцам в провинцию Шаньдун, Ма Юань решается на опасный поступок — взорвать тщательно охраняемый железнодорожный мост...

Перевод: Любительский (одноголосый) | Chesterfield
Субтитры: нет

Качество: DVDRip | исходник DVD9 - Железнодорожные тигрыVIDEO_TSVIDEO_TS.BUP
Формат: АVI
Видео кодек: XviD
Аудио кодек: АС3
Видео: 688x288 (2.40:1), 23.976 fps, XviD build 73 ~1 385 kbps avg
Аудио: 48.0 kHz, AC3 Dolby Digital, 2/0 (L,R) ch, ~192 kbps
Дата премьеры (мир): 23 декабря 2016

Релиз от: Клуб фанатов азиатского кино «Таверна»
General
Полное имя : Железнодорожные тигры (боевик военный Джеки Чан 2016 год).avi
Формат : AVI
Формат/Информация : Audio Video Interleave
Размер файла : 1,38 Гбайт
Продолжительность : 2 ч. 4 м.
Общий поток : 1586 Кбит/сек
Программа кодирования : VirtualDubMod 1.5.10.3 | (build 2550/release)
Библиотека кодирования : VirtualDubMod build 2550/release
Видео
Идентификатор : 0
Формат : MPEG-4 Visual
Профиль формата : Advanced Simple@L5
Параметр BVOP формата : 2
Параметр QPel формата : Нет
Параметр GMC формата : Без точки перехода
Параметр матрицы формата : Выборочная
Идентификатор кодека : XVID
Идентификатор кодека/Подсказка : XviD
Продолжительность : 2 ч. 4 м.
Битрейт : 1385 Кбит/сек
Ширина : 688 пикселей
Высота : 288 пикселей
Соотношение сторон : 2,40:1
Частота кадров : 23,976 (24000/1001) кадра/сек
Цветовое пространство : YUV
Субдискретизация насыщенности : 4:2:0
Битовая глубина : 8 бит
Тип развёртки : Прогрессивная
Метод сжатия : С потерями
Бит/(Пиксели*Кадры) : 0.291
Размер потока : 1,20 Гбайт (87%)
Библиотека кодирования : XviD 73
Аудио
Идентификатор : 1
Формат : AC-3
Формат/Информация : Audio Coding 3
Расширение режима : CM (complete main)
Параметр Endianness формата : Big
Идентификатор кодека : 2000
Продолжительность : 2 ч. 4 м.
Вид битрейта : Постоянный
Битрейт : 192 Кбит/сек
Каналы : 2 канала
Расположение каналов : Front: L R
Частота : 48,0 КГц
Частота кадров : 31,250 кадров/сек (1536 spf)
Метод сжатия : С потерями
Размер потока : 171 Мбайт (12%)
Выравнивание : Разделение по промежуткам
Продолжительность промежутка : 42 мс. (1,00 видеокадр)
Время предзагрузки промежутка : 500 мс.



   Похожие торренты   Торрент   Размер 
В этой теме нет новых непрочитанных сообщений. Железнодорожные тигры / Tiedao fei hu (2016) HDRip | L

68 | 8

2.05 ГБ

В этой теме нет новых непрочитанных сообщений. Железнодорожные тигры / Tiedao fei hu (2016) HDRip | L

385 | 18

1.37 ГБ

В этой теме нет новых непрочитанных сообщений. Железнодорожные тигры / Tiedao fei hu (2016) BDRip 720p | L

82 | 4

5.5 ГБ

В этой теме нет новых непрочитанных сообщений. Железнодорожные тигры / Tiedao fei hu (2016) BDRip 1080p | L

59 | 0

10.24 ГБ

В этой теме нет новых непрочитанных сообщений. Железнодорожные тигры / Tiedao fei hu (2016) HDRip | Jaskier

68 | 2

1.46 ГБ

В этой теме нет новых непрочитанных сообщений. Железнодорожные тигры / Tiedao fei hu (2016) BDRip 720p | Jaskier

71 | 2

6.65 ГБ

В этой теме нет новых непрочитанных сообщений. Железнодорожные тигры / Tiedao fei hu (2016) BDRip от MegaPeer | Jaskier

23 | 3

1.46 ГБ




Вы не можете начинать темы
Вы не можете отвечать на сообщения
Вы не можете редактировать свои сообщения
Вы не можете удалять свои сообщения
Вы не можете добавлять вложения

Перейти:  
Для Мосгорсуда, Роскомнадзора и рекламодателей: mosgorsud-torrent[собачка]yandex.ru
 Вход
ppkBB3cker v.2 © 2008-2014 @ PPK
[ Time : 0.033s | 17 Queries | GZIP : Off ]

cron