img image001 image001 image001 image001 image001 image001 image001 image001 image001 image001 image001 image001 image001 image001 image001

Planets Sun Sun Sun

COVID-19 - Последняя информация о коронавирусе на сайте Минздрава | СИДИТЕ ДОМА!


Статистика раздачи
Автор: Nickolas3434 | Размер: 6.71 ГБ | Добавлен: 12 май 2017
Раздают: 44    Качают: 1
Скачать торрент
Скачать торрент
Описание торрента

СообщениеДобавлено: 12 май 2017 

Название: Робин Гуд
Оригинальное название: Robin Hood
Год выпуска: 2010
Жанр: Боевик, драма, приключения
Выпущено: США, Великобритания, Universal Pictures, Imagine Entertainment, Relativity Media, Scott Free Productions
Продолжительность: 02:35:48
Перевод: Дублированный, авторский (одноголосый, закадровый)
Субтитры: Русские, английские
Режиссер: Ридли Скотт
В ролях: Расселл Кроу, Кейт Бланшетт, Макс фон Сюдов, Уильям Хёрт, Марк Стронг, Оскар Айзек, Дэнни Хьюстон, Айлин Эткинс, Марк Эдди, Мэттью Макфейден
О фильме:
Сюжет фильма «Робин Гуд» развивается в средневековой Англии, в смутные времена. Главный герой является отважным и храбрым лучником по имени Робин Гуд. Он служил в армии Ричарда Львиное Сердце. Кроль Ричард со своей армией штурмует французский замок. Во время боя король получает смертельную травму. Перед смертью он успевает передать свой меч Робин Гуду, чтобы тот отвез его к отцу в Ноттингем. В это же время один из солдат армии Ричарда везет корону умершего короля в Англию, чтобы передать ее новому правителю. На солдата нападают и подоспевший Робин успевает отбить корону. Приехав в Англию главный герой подвергается предательству, которого он никогда не простит…

Качество: BDRip 720p
Видео: AVC, 1280x534 (2.40:1), 23.976 fps, 4 378 Kbps (0.267 bit/pixel)
Аудио #1: AC-3, 48.0 KHz, 6 ch, 448 Kbps, CBR (Russian) - дублированный
Аудио #2: AC-3, 48.0 KHz, 6 ch, 448 Kbps, CBR (Russian) - авторский А.Гаврилов
Аудио #3: AC-3, 48.0 KHz, 6 ch, 448 Kbps, CBR (Russian) - авторский Ю.Немахов
Аудио #4: AC-3, 48.0 KHz, 6 ch, 448 Kbps, CBR (English) - оригинальная звуковая дорожка
Релиз: K.E.N &
x264 [info]: frame I:1748 Avg QP:16.83 size:129119 PSNR Mean Y:46.10 U:50.62 V:50.34 Avg:47.03 Global:46.43
x264 [info]: frame P:54278 Avg QP:19.87 size: 41412 PSNR Mean Y:43.66 U:50.05 V:49.62 Avg:44.78 Global:43.97
x264 [info]: frame B:168118 Avg QP:22.12 size: 15694 PSNR Mean Y:42.47 U:49.40 V:49.16 Avg:43.64 Global:42.80
Формат : Matroska
Версия формата : Version 2
Размер файла : 6,71 Гбайт
Продолжительность : 2 ч. 35 м.
Общий поток : 6169 Кбит/сек
Дата кодирования : UTC 2017-05-12 03:41:07
Программа кодирования : mkvmerge v5.3.0 ('I could have danced') built on Feb 9 2012 10:38:07
Библиотека кодирования : libebml v1.2.3 + libmatroska v1.3.0
Attachments : poster (7).jpg
Видео
Идентификатор : 1
Формат : AVC
Формат/Информация : Advanced Video Codec
Профиль формата : High@L4.1
Параметр CABAC формата : Да
Параметр ReFrames формата : 12 кадров
Идентификатор кодека : V_MPEG4/ISO/AVC
Продолжительность : 2 ч. 35 м.
Битрейт : 4378 Кбит/сек
Ширина : 1280 пикселей
Высота : 534 пикселя
Соотношение сторон : 2,40:1
Режим частоты кадров : Постоянный
Частота кадров : 23,976 (24000/1001) кадра/сек
Цветовое пространство : YUV
Субдискретизация насыщенности : 4:2:0
Битовая глубина : 8 бит
Тип развёртки : Прогрессивная
Бит/(Пиксели*Кадры) : 0.267
Размер потока : 4,63 Гбайт (69%)
Библиотека кодирования : x264 core 146 r2538 121396c
Настройки программы : cabac=1 / ref=12 / deblock=1:-3:-3 / analyse=0x3:0x133 / me=umh / subme=11 / psy=1 / psy_rd=1.00:0.00 / mixed_ref=1 / me_range=32 / chroma_me=1 / trellis=2 / 8x8dct=1 / cqm=0 / deadzone=21,11 / fast_pskip=0 / chroma_qp_offset=-2 / threads=12 / lookahead_threads=3 / sliced_threads=0 / nr=0 / decimate=1 / interlaced=0 / bluray_compat=0 / constrained_intra=0 / bframes=11 / b_pyramid=2 / b_adapt=2 / b_bias=0 / direct=3 / weightb=1 / open_gop=0 / weightp=2 / keyint=240 / keyint_min=23 / scenecut=40 / intra_refresh=0 / rc=2pass / mbtree=0 / bitrate=4378 / ratetol=1.0 / qcomp=0.60 / qpmin=0 / qpmax=69 / qpstep=4 / cplxblur=20.0 / qblur=0.5 / ip_ratio=1.40 / pb_ratio=1.30 / aq=2:0.80
Язык : English
Default : Да
Forced : Нет
Аудио #1
Идентификатор : 2
Формат : AC-3
Формат/Информация : Audio Coding 3
Расширение режима : CM (complete main)
Параметр Endianness формата : Big
Идентификатор кодека : A_AC3
Продолжительность : 2 ч. 35 м.
Вид битрейта : Постоянный
Битрейт : 448 Кбит/сек
Каналы : 6 каналов
Расположение каналов : Front: L C R, Side: L R, LFE
Частота : 48,0 КГц
Частота кадров : 31,250 кадров/сек (1536 spf)
Битовая глубина : 16 бит
Метод сжатия : С потерями
Размер потока : 499 Мбайт (7%)
Заголовок : Дублированный
Язык : Russian
Default : Да
Forced : Нет
Аудио #2
Идентификатор : 3
Формат : AC-3
Формат/Информация : Audio Coding 3
Расширение режима : CM (complete main)
Параметр Endianness формата : Big
Идентификатор кодека : A_AC3
Продолжительность : 2 ч. 35 м.
Вид битрейта : Постоянный
Битрейт : 448 Кбит/сек
Каналы : 6 каналов
Расположение каналов : Front: L C R, Side: L R, LFE
Частота : 48,0 КГц
Частота кадров : 31,250 кадров/сек (1536 spf)
Битовая глубина : 16 бит
Метод сжатия : С потерями
Размер потока : 499 Мбайт (7%)
Заголовок : Авторский А.Гаврилов
Язык : Russian
Default : Нет
Forced : Нет
Аудио #3
Идентификатор : 4
Формат : AC-3
Формат/Информация : Audio Coding 3
Расширение режима : CM (complete main)
Параметр Endianness формата : Big
Идентификатор кодека : A_AC3
Продолжительность : 2 ч. 35 м.
Вид битрейта : Постоянный
Битрейт : 448 Кбит/сек
Каналы : 6 каналов
Расположение каналов : Front: L C R, Side: L R, LFE
Частота : 48,0 КГц
Частота кадров : 31,250 кадров/сек (1536 spf)
Битовая глубина : 16 бит
Метод сжатия : С потерями
Размер потока : 499 Мбайт (7%)
Заголовок : Авторский Ю.Немахов
Язык : Russian
Default : Нет
Forced : Нет
Аудио #4
Идентификатор : 5
Формат : AC-3
Формат/Информация : Audio Coding 3
Расширение режима : CM (complete main)
Параметр Endianness формата : Big
Идентификатор кодека : A_AC3
Продолжительность : 2 ч. 35 м.
Вид битрейта : Постоянный
Битрейт : 448 Кбит/сек
Каналы : 6 каналов
Расположение каналов : Front: L C R, Side: L R, LFE
Частота : 48,0 КГц
Частота кадров : 31,250 кадров/сек (1536 spf)
Битовая глубина : 16 бит
Метод сжатия : С потерями
Размер потока : 499 Мбайт (7%)
Заголовок : Оригинал
Язык : English
Default : Нет
Forced : Нет
Текст #1
Идентификатор : 6
Формат : UTF-8
Идентификатор кодека : S_TEXT/UTF8
Идентификатор кодека/Информация : UTF-8 Plain Text
Заголовок : forced
Язык : Russian
Default : Да
Forced : Нет
Текст #2
Идентификатор : 7
Формат : UTF-8
Идентификатор кодека : S_TEXT/UTF8
Идентификатор кодека/Информация : UTF-8 Plain Text
Заголовок : full
Язык : Russian
Default : Нет
Forced : Нет
Текст #3
Идентификатор : 8
Формат : UTF-8
Идентификатор кодека : S_TEXT/UTF8
Идентификатор кодека/Информация : UTF-8 Plain Text
Заголовок : full
Язык : English
Default : Нет
Forced : Нет
Меню
00:00:00.000 : :Chapter 01
00:12:05.974 : :Chapter 02
00:18:27.440 : :Chapter 03
00:25:11.552 : :Chapter 04
00:33:31.426 : :Chapter 05
00:38:36.981 : :Chapter 06
00:48:42.585 : :Chapter 07
00:57:11.887 : :Chapter 08
01:04:14.309 : :Chapter 09
01:10:41.612 : :Chapter 10
01:23:24.624 : :Chapter 11
01:32:17.115 : :Chapter 12
01:40:30.149 : :Chapter 13
01:49:15.881 : :Chapter 14
01:56:06.418 : :Chapter 15
02:02:29.091 : :Chapter 16
02:09:20.669 : :Chapter 17
02:18:21.418 : :Chapter 18
02:22:48.685 : :Chapter 19
02:27:08.611 : :Chapter 20

Скриншоты:

   Похожие торренты   Торрент   Размер 
В этой теме нет новых непрочитанных сообщений. Робин Гуд / Robin Hood (2010) BDRemux 1080p | D, A | Directors Cut

9 | 6

38.64 ГБ

В этой теме нет новых непрочитанных сообщений. Робин Гуд: Мужчины в трико / Robin Hood: Men in Tight (Мел Брукс) [1993, Пародийная комедия, HDRip] MVO

12 | 0

1.46 ГБ

В этой теме нет новых непрочитанных сообщений. Робин Гуд / Robin Hood (2010) BDRip 720p от HQ-ViDEO | Режиссерская версия | D

190 | 26

7.92 ГБ

В этой теме нет новых непрочитанных сообщений. Робин Гуд / Robin Hood (2010) BDRip-AVC | D | Режиссерская версия

116 | 3

748.33 МБ

В этой теме нет новых непрочитанных сообщений. Робин Гуд [Режиссерская версия] / Robin Hood [Director's Cut] (Ридли Скотт) [2010, боевик, драма, приключения, BDRip] DUB

5 | 0

2.18 ГБ

В этой теме нет новых непрочитанных сообщений. Робин Гуд / Robin Hood (2010) HDTV 1080i | Theatrical Cut | Open Matte | Лицензия

56 | 8

4.3 ГБ

В этой теме нет новых непрочитанных сообщений. Робин Гуд / Robin Hood (1973) BDRip | дополнительные материалы

1 | 1

923.49 МБ




Вы не можете начинать темы
Вы не можете отвечать на сообщения
Вы не можете редактировать свои сообщения
Вы не можете удалять свои сообщения
Вы не можете добавлять вложения

Перейти:  
 Вход
ppkBB3cker v.2 © 2008-2014 @ PPK
[ Time : 0.033s | 17 Queries | GZIP : Off ]

cron