img image001 image001 image001 image001 image001 image001 image001 image001 image001 image001 image001 image001 image001 image001 image001 image001

Planets Sun Sun Sun
Статистика раздачи
Автор: Снежана | Размер: 4.37 ГБ | Добавлен: 22 июл 2013
Раздают: 109    Качают: 8
Скачать торрент
Скачать торрент
Описание торрента

СообщениеДобавлено: 22 июл 2013 

#77

Информация о фильме:
Название: Перси Джексон и похититель молний
Оригинальное название: Percy Jackson & the Olympians: The Lightning Thief
Год выхода: 2010
Жанр: фэнтези, детектив, приключения
Режиссер: Крис Коламбус
В ролях: Логан Лерман, Шон Бин, Ума Турман, Пирс Броснан, Кевин МакКидд, Александра Даддарио, Розарио Доусон, Кэтрин Кинер, Стив Кугэн, Джэйк Абель

О фильме:
Главный персонаж — мальчик, узнавший, что его род берет начало от греческого бога. В сопровождении сатира и дочери Афины он отправляется в опасное путешествие, чтобы примирить богов. На протяжении всего фильма храбреца пытается остановить целый сонм мифологических врагов. Его также ждет встреча с отцом и оракулом, предсказывающим предательство друга.



Выпущено: США
Продолжительность: 01:58:37
Перевод: Дублированный

Файл
Кодек: x264
Качество: BDRip 1080p
Видео: 1920x816, 4829 Kbps, 23.976 fps
Звук: 48 kHz, AC3, 6c, 448 kbps
Субтитры: русские, английские
Скачать:

General
Unique ID : 219366409793180213112511469558447423035 (0xA5086F09AC294C338B6D4912138F3E3B)
Complete name : Перси Джексон и похититель молний.2010.BDRip.1080p.Rus.mkv
Format : Matroska
Format version : Version 2
File size : 4.37 GiB
Duration : 1h 58mn
Overall bit rate : 5 275 Kbps
Movie name : Перси Джексон и похититель молний.2010
Encoded date : UTC 2012-07-14 15:19:37
Writing application : mkvmerge v5.7.0 ('The Whirlwind') built on Jul 10 2012 18:39:26
Writing library : libebml v1.2.3 + libmatroska v1.3.0

Video
ID : 1
Format : AVC
Format/Info : Advanced Video Codec
Format profile : High@L4.1
Format settings, CABAC : Yes
Format settings, ReFrames : 5 frames
Codec ID : V_MPEG4/ISO/AVC
Duration : 1h 58mn
Bit rate : 4 829 Kbps
Width : 1 920 pixels
Height : 816 pixels
Display aspect ratio : 2.35:1
Frame rate : 23.976 fps
Color space : YUV
Chroma subsampling : 4:2:0
Bit depth : 8 bits
Scan type : Progressive
Bits/(Pixel*Frame) : 0.129
Stream size : 3.91 GiB (90%)
Title : Rip by Boriy
Writing library : x264 core 125 r2200 999b753
Encoding settings : cabac=1 / ref=5 / deblock=1:0:0 / analyse=0x3:0x113 / me=umh / subme=10 / psy=1 / psy_rd=1.00:0.10 / mixed_ref=1 / me_range=32 / chroma_me=1 / trellis=2 / 8x8dct=1 / cqm=0 / deadzone=21,11 / fast_pskip=0 / chroma_qp_offset=-3 / threads=12 / lookahead_threads=2 / sliced_threads=0 / nr=0 / decimate=0 / interlaced=0 / bluray_compat=0 / constrained_intra=0 / bframes=5 / b_pyramid=2 / b_adapt=2 / b_bias=0 / direct=3 / weightb=1 / open_gop=0 / weightp=2 / keyint=240 / keyint_min=23 / scenecut=40 / intra_refresh=0 / rc_lookahead=60 / rc=2pass / mbtree=1 / bitrate=4829 / ratetol=1.0 / qcomp=0.60 / qpmin=0 / qpmax=69 / qpstep=4 / cplxblur=20.0 / qblur=0.5 / ip_ratio=1.40 / aq=1:1.00
Language : English
Default : Yes
Forced : No

Audio
ID : 2
Format : AC-3
Format/Info : Audio Coding 3
Mode extension : CM (complete main)
Format settings, Endianness : Big
Codec ID : A_AC3
Duration : 1h 58mn
Bit rate mode : Constant
Bit rate : 448 Kbps
Channel(s) : 6 channels
Channel positions : Front: L C R, Side: L R, LFE
Sampling rate : 48.0 KHz
Bit depth : 16 bits
Compression mode : Lossy
Stream size : 380 MiB (8%)
Title : Дубляж
Language : Russian
Default : Yes
Forced : No

Text #1
ID : 3
Format : UTF-8
Codec ID : S_TEXT/UTF8
Codec ID/Info : UTF-8 Plain Text
Language : Russian
Default : No
Forced : No

Text #2
ID : 4
Format : UTF-8
Codec ID : S_TEXT/UTF8
Codec ID/Info : UTF-8 Plain Text
Language : English
Default : No
Forced : No

Menu
00:00:00.000 : :Chapter 1
00:04:39.404 : :Chapter 2
00:07:28.448 : :Chapter 3
00:09:47.295 : :Chapter 4
00:14:56.020 : :Chapter 5
00:20:28.894 : :Chapter 6
00:24:39.769 : :Chapter 7
00:31:09.993 : :Chapter 8
00:34:25.938 : :Chapter 9
00:38:50.578 : :Chapter 10
00:41:23.147 : :Chapter 11
00:43:15.384 : :Chapter 12
00:46:49.556 : :Chapter 13
00:50:05.836 : :Chapter 14
00:56:49.614 : :Chapter 15
01:01:35.400 : :Chapter 16
01:04:49.260 : :Chapter 17
01:10:20.591 : :Chapter 18
01:13:32.783 : :Chapter 19
01:20:58.353 : :Chapter 20
01:25:16.861 : :Chapter 21
01:29:38.915 : :Chapter 22
01:33:42.742 : :Chapter 23
01:38:35.701 : :Chapter 24
01:41:45.849 : :Chapter 25
01:44:47.114 : :Chapter 26
01:47:43.582 : :Chapter 27
01:52:12.016 : :Chapter 28
01:58:37.652 : :Chapter 29



   Похожие торренты   Торрент   Размер 
В этой теме нет новых непрочитанных сообщений. Перси Джексон и похититель молний / Percy Jackson & the Olympians: The Lightning Thief (2010) BDRip 1080p HEVC | D

17 | 0

4.49 ГБ

В этой теме нет новых непрочитанных сообщений. Перси Джексон и похититель молний / Percy Jackson & the Olympians: The Lightning Thief (2010) BDRip-AVC от HQ-ViDEO

870 | 55

2.18 ГБ

В этой теме нет новых непрочитанных сообщений. Перси Джексон и похититель молний / Percy Jackson & the Olympians: The Lightning Thief (2010) BDRip 720p

345 | 11

5.76 ГБ

В этой теме нет новых непрочитанных сообщений. Перси Джексон и похититель молний / Percy Jackson & the Olympians: The Lightning Thief (2010) HDRip-AVC | D

204 | 31

745.14 МБ

В этой теме нет новых непрочитанных сообщений. Перси Джексон: Дилогия / Percy Jackson: Dilogy (2010-2013) BDRip-720p | Дополнительные материалы

87 | 14

1.7 ГБ

В этой теме нет новых непрочитанных сообщений. Перси Джексон и Море чудовищ / Percy Jackson: Sea of Monsters (2013) BDRip 1080p от HDClub | Лицензия

15 | 7

14.95 ГБ

В этой теме нет новых непрочитанных сообщений. Перси Джексон и Море чудовищ / Percy Jackson: Sea of Monsters (2013) BDRip 1080p от DHT-Movies | Лицензия

12 | 7

9.98 ГБ




Вы не можете начинать темы
Вы не можете отвечать на сообщения
Вы не можете редактировать свои сообщения
Вы не можете удалять свои сообщения
Вы не можете добавлять вложения

Перейти:  
 Вход
ppkBB3cker v.2 © 2008-2014 @ PPK
[ Time : 0.046s | 18 Queries | GZIP : Off ]

cron