img image001 image001 image001 image001 image001 image001 image001 image001 image001 image001 image001 image001 image001 image001 image001 image001

Planets Sun Sun Sun
Статистика раздачи
Автор: Nickolas3434 | Размер: 412 МБ | Добавлен: 24 май 2017
Раздают: 51    Качают: 4
Скачать торрент
Скачать торрент
Описание торрента

СообщениеДобавлено: 24 май 2017 

Информация о фильме
Название: Передельщик
Оригинальное название: Redivider / Kill Switch
Год выхода: 2017
Жанр: Фантастика
Режиссер: Тим Смит
В ролях: Дэн Стивенс, Беренис Марло, Чарити Уэйкфилд, Тиго Гернандт, Хлоя-Мэй Катхилл, Гийс Шолтен ван Ашат, Бас Кейзер, Дон Альфонсо, Мике Либанон, Майк Реус
О фильме:
Энергетическая компания «Альтерплекс» придумала, как получить доступ к неограниченной энергии. Для этих целей было построено устройство под названием Башня, которое получает энергию в чистом виде. Представители «Альтерплекса» нанимают бывшего астронавта Уилла для выполнения опасного задания.

Страна: Нидерланды, Германия, США
Студия: CTM Productions BV, FilmNation Entertainment
Продолжительность: 01:31:16
Перевод: Любительский одноголосый | BadBajo
Файл
Формат: MP4
Качество: WEB-DLRip | КПК
Видео: Н.264, 640x266 (2,40:1), 24.000 fps, 500 Kbps
Звук: AAC LC, 48.0 KHz, 2 ch, 128 Kbps
Субтитры: Нет
Общее
Полное имя : C:UsersАлександрDesktopфильмKill.Switch.2017.ImperiaFilm.mp4
Формат : MPEG-4
Профиль формата : Base Media
Идентификатор кодека : isom (isom/avc1/iso6)
Размер файла : 412 Мбайт
Продолжительность : 1 ч. 31 м.
Режим общего битрейта : Переменный
Общий поток : 631 Кбит/сек
Дата кодирования : UTC 2017-05-23 12:46:20
Дата пометки : UTC 2017-05-23 12:46:20
Видео
Идентификатор : 1
Формат : AVC
Формат/Информация : Advanced Video Codec
Профиль формата : High@L4.1
Параметр CABAC формата : Да
Параметр ReFrames формата : 10 кадров
Идентификатор кодека : avc1
Идентификатор кодека/Информация : Advanced Video Coding
Продолжительность : 1 ч. 31 м.
Битрейт : 500 Кбит/сек
Максимальный битрейт : 1546 Кбит/сек
Ширина : 640 пикселей
Высота : 266 пикселей
Соотношение сторон : 2,40:1
Режим частоты кадров : Постоянный
Частота кадров : 24,000 кадра/сек
Цветовое пространство : YUV
Субдискретизация насыщенности : 4:2:0
Битовая глубина : 8 бит
Тип развёртки : Прогрессивная
Бит/(Пиксели*Кадры) : 0.122
Размер потока : 326 Мбайт (79%)
Заголовок : 264@GPAC0.5.2-DEV-rev248-g39d5978-master
Библиотека кодирования : x264 core 146 r2538 121396c
Настройки программы : cabac=1 / ref=10 / deblock=1:-3:-3 / analyse=0x3:0x113 / me=umh / subme=11 / psy=1 / psy_rd=1.00:0.00 / mixed_ref=1 / me_range=48 / chroma_me=1 / trellis=2 / 8x8dct=1 / cqm=0 / deadzone=21,11 / fast_pskip=0 / chroma_qp_offset=-2 / threads=6 / lookahead_threads=1 / sliced_threads=0 / nr=0 / decimate=0 / interlaced=0 / bluray_compat=0 / constrained_intra=0 / bframes=10 / b_pyramid=2 / b_adapt=2 / b_bias=0 / direct=3 / weightb=1 / open_gop=0 / weightp=2 / keyint=240 / keyint_min=24 / scenecut=40 / intra_refresh=0 / rc_lookahead=40 / rc=2pass / mbtree=0 / bitrate=500 / ratetol=1.0 / qcomp=0.60 / qpmin=0 / qpmax=69 / qpstep=4 / cplxblur=20.0 / qblur=0.5 / vbv_maxrate=14000 / vbv_bufsize=14000 / nal_hrd=none / filler=0 / ip_ratio=1.40 / pb_ratio=1.30 / aq=1:1.00
Дата кодирования : UTC 2017-05-23 12:46:20
Дата пометки : UTC 2017-05-23 12:46:38
Аудио
Идентификатор : 2
Формат : AAC
Формат/Информация : Advanced Audio Codec
Профиль формата : LC
Идентификатор кодека : 40
Продолжительность : 1 ч. 31 м.
Вид битрейта : Переменный
Битрейт : 128 Кбит/сек
Максимальный битрейт : 152 Кбит/сек
Каналы : 2 канала
Расположение каналов : Front: L R
Частота : 48,0 КГц
Частота кадров : 46,875 кадров/сек (1024 spf)
Метод сжатия : С потерями
Размер потока : 83,4 Мбайт (20%)
Дата кодирования : UTC 2017-05-23 09:43:03
Дата пометки : UTC 2017-05-23 12:46:38

Релиз от:



   Похожие торренты   Торрент   Размер 
В этой теме нет новых непрочитанных сообщений. Передельщик / Redivider / Kill Switch (2017) WEB-DLRip от ExKinoRay | L1

243 | 3

1.37 ГБ

В этой теме нет новых непрочитанных сообщений. Передельщик / Redivider / Kill Switch (2017) WEB-DLRip от MegaPeer | L1

58 | 0

745.94 МБ

В этой теме нет новых непрочитанных сообщений. Передельщик / Redivider / Kill Switch (2017) WEB-DL 1080p | L1

454 | 15

3.38 ГБ

В этой теме нет новых непрочитанных сообщений. Рубильник / Kill Switch (2017) WEB-DLRip-AVC от OlLanDGroup | L1

310 | 1

1.87 ГБ

В этой теме нет новых непрочитанных сообщений. Рубильник / Kill Switch (Тим Смит ) [2017, фантастика, боевик, BDRip-AVC] VO / Фантастика

7 | 0

1.45 ГБ

В этой теме нет новых непрочитанных сообщений. Не убивай его / Don't Kill It (2016) WEB-DLRip от ImperiaFilm | КПК | L

8 | 0

335.28 МБ

В этой теме нет новых непрочитанных сообщений. Kill Switch (2004) PC | RePack

9 | 4

308.62 МБ




Вы не можете начинать темы
Вы не можете отвечать на сообщения
Вы не можете редактировать свои сообщения
Вы не можете удалять свои сообщения
Вы не можете добавлять вложения

Перейти:  
 Вход
ppkBB3cker v.2 © 2008-2014 @ PPK
[ Time : 0.033s | 16 Queries | GZIP : Off ]

cron