img image001 image001 image001 image001 image001 image001 image001 image001 image001 image001 image001 image001 image001 image001 image001 image001

Planets Sun Sun Sun
Статистика раздачи
Автор: Nickolas3434 | Размер: 13.46 ГБ | Добавлен: 26 май 2017
Раздают: 16    Качают: 22
Скачать торрент
Скачать торрент
Описание торрента

СообщениеДобавлено: 26 май 2017 

Как потерять друзей и заставить всех тебя ненавидеть / How to Lose Friends & Alienate People
Страна: Великобритания
Производство: Aramid Entertainment Fund, Film4, Intandem Films, Lip Sync Productions, The Film Council
Год выпуска: 2008
Жанр: драма, мелодрама, комедия
Продолжительность: 01:46:31
Режиссер: Роберт Б. Уайде
Авторы сценария: Питер Строхан, Тоби Янг
В ролях: Саймон Пегг, Меган Фокс, Кирстен Данст, Джефф Бриджес, Джиллиан Андерсон, Лиза МакАллистер, Мириам Маргулис, Шарлотта Девани
Описание: Сидней Янг — разочарованный нищий интеллектуал. Он глубоко презирает мир шика и гламура, потому что знает, что никогда не станет его частью, и богатство ему не грозит. Его альтернативный журнал «Мир без понтов» высмеивает чванливых звезд, одержимых собственной важностью.
И вот, чтобы позабавиться над этим чудаком, издатель самого крутого глянцевого журнала «Гламур» предлагает Сиднею кресло журналиста в отдел сенсаций. Все замерли в радостном предвкушении великой хохмы. Но к удивлению местных снобов, Сидней соглашается на предложение, а его эксцентричные выходки сразу приносят ему славу и успех…

Перевод: Профессиональный (полное дублирование) | iTunes
Субтитры: английские
Бюджет: $28 000 000
Дата премьеры (мир): 3 октября 2008
Дата премьеры (РФ): 16 октября 2008, «Люксор»

Качество: BDRip 1080p
Формат: M4V
Видео кодек: AVC
Аудио кодек: AAC | АС3
Видео №1: 1920x1036 (1.85:1), 25.000 fps, MPEG-4 AVC ~11.1 Мbps avg
Видео №2: 640x345 (1.85:1), 25.000 fps, MPEG-4 AVC ~760 kbps avg
Аудио №1: 48.0 kHz, Advanced Audio Codec LC, 2/0 (L,R) ch, ~164 kbps | RUS
Аудио №2: 48.0 kHz, Advanced Audio Codec LC, 2/0 (L,R) ch, ~163 kbps | ENG
Аудио №3: 48.0 kHz, AC3 Dolby Digital, 3/2 (L,C,R,l,r) + LFE ch, ~384 kbps | RUS
Аудио №4: 48.0 kHz, AC3 Dolby Digital, 3/2 (L,C,R,l,r) + LFE ch, ~384 kbps | ENG
Формат субтитров: Timed text, Apple text
General
Полное имя : How to Lose Friends (1080p HD).m4v
Формат : MPEG-4
Идентификатор кодека : M4V
Размер файла : 9,07 Гбайт
Продолжительность : 1 ч. 46 м.
Режим общего битрейта : Переменный
Общий поток : 12,2 Мбит/сек
Название фильма : How to Lose Friends and Alienate People
Исполнитель : Robert B. Weide
Жанр : Comedy
Дата записи : UTC 2009-02-17 08:00:00
Дата кодирования : UTC 2014-03-09 12:39:47
Дата пометки : UTC 2014-03-09 12:51:25
Правообладатель : © 2008 Alienate Limited, UK Film Council and Channel Four Television Corporation. All Rights Reserved.
Видео #1
Идентификатор : 1
Формат : AVC
Формат/Информация : Advanced Video Codec
Профиль формата : High@L4.0
Параметр CABAC формата : Да
Параметр ReFrames формата : 4 кадра
Идентификатор кодека : avc1
Идентификатор кодека/Информация : Advanced Video Coding
Продолжительность : 1 ч. 46 м.
Вид битрейта : Переменный
Битрейт : 11,1 Мбит/сек
Ширина : 1920 пикселей
Высота : 1036 пикселей
Соотношение сторон : 1,85:1
Режим частоты кадров : Постоянный
Частота кадров : 25,000 кадров/сек
Цветовое пространство : YUV
Субдискретизация насыщенности : 4:2:0
Битовая глубина : 8 бит
Тип развёртки : Прогрессивная
Бит/(Пиксели*Кадры) : 0.223
Размер потока : 8,25 Гбайт (91%)
Библиотека кодирования : x264 core 130 r2273 b3065e6
Настройки программы : cabac=1 / ref=4 / deblock=1:-3:-3 / analyse=0x3:0x113 / me=umh / subme=9 / psy=1 / psy_rd=1.00:0.00 / mixed_ref=1 / me_range=32 / chroma_me=1 / trellis=2 / 8x8dct=1 / cqm=0 / deadzone=21,11 / fast_pskip=1 / chroma_qp_offset=-2 / threads=18 / lookahead_threads=1 / sliced_threads=0 / nr=0 / decimate=1 / interlaced=0 / bluray_compat=0 / constrained_intra=0 / bframes=8 / b_pyramid=2 / b_adapt=1 / b_bias=0 / direct=1 / weightb=1 / open_gop=0 / weightp=2 / keyint=250 / keyint_min=25 / scenecut=40 / intra_refresh=0 / rc_lookahead=40 / rc=2pass / mbtree=1 / bitrate=11100 / ratetol=1.0 / qcomp=0.60 / qpmin=0 / qpmax=69 / qpstep=4 / cplxblur=20.0 / qblur=0.5 / vbv_maxrate=25000 / vbv_bufsize=25000 / nal_hrd=none / ip_ratio=1.40 / aq=1:0.80
Язык : English
Дата кодирования : UTC 2014-03-09 12:39:47
Дата пометки : UTC 2014-03-09 12:40:59
Основные цвета : BT.709-5, BT.1361, IEC 61966-2-4, SMPTE RP177
Характеристики трансфера : BT.709-5, BT.1361
Коэффициенты матрицы : BT.709-5, BT.1361, IEC 61966-2-4 709, SMPTE RP177
Видео #2
Идентификатор : 8
Формат : JPEG
Идентификатор кодека : jpeg
Продолжительность : 1 ч. 46 м.
Вид битрейта : Переменный
Битрейт : 760 бит/сек
Ширина : 640 пикселей
Высота : 345 пикселей
Соотношение сторон : 1,85:1
Режим частоты кадров : Переменный
Частота кадров : 0,002 кадр/сек
Минимальная частота кадров : 0,001 кадр/сек
Максимальная частота кадров : 0,003 кадр/сек
Цветовое пространство : YUV
Субдискретизация насыщенности : 4:2:0
Битовая глубина : 8 бит
Метод сжатия : С потерями
Бит/(Пиксели*Кадры) : 1.721
Размер потока : 510 Кбайт (0%)
Язык : English
Дата кодирования : UTC 2014-03-09 12:50:51
Дата пометки : UTC 2014-03-09 12:50:51
Аудио #1
Идентификатор : 2
Формат : AAC
Формат/Информация : Advanced Audio Codec
Профиль формата : LC
Идентификатор кодека : 40
Продолжительность : 1 ч. 46 м.
Вид битрейта : Переменный
Битрейт : 164 Кбит/сек
Максимальный битрейт : 255 Кбит/сек
Каналы : 2 канала
Расположение каналов : Front: L R
Частота : 48,0 КГц
Метод сжатия : С потерями
Задержка видео : -13 с.
Размер потока : 125 Мбайт (1%)
Язык : Russian
Дата кодирования : UTC 2014-03-09 12:50:39
Дата пометки : UTC 2014-03-09 12:50:45
Аудио #2
Идентификатор : 3
Формат : AAC
Формат/Информация : Advanced Audio Codec
Профиль формата : LC
Идентификатор кодека : 40
Продолжительность : 1 ч. 46 м.
Вид битрейта : Переменный
Битрейт : 163 Кбит/сек
Максимальный битрейт : 252 Кбит/сек
Каналы : 2 канала
Расположение каналов : Front: L R
Частота : 48,0 КГц
Метод сжатия : С потерями
Задержка видео : -13 с.
Размер потока : 124 Мбайт (1%)
Язык : English
Дата кодирования : UTC 2014-03-09 12:50:39
Дата пометки : UTC 2014-03-09 12:50:45
Аудио #3
Идентификатор : 4
Формат : AC-3
Формат/Информация : Audio Coding 3
Расширение режима : CM (complete main)
Параметр Endianness формата : Big
Идентификатор кодека : ac-3
Продолжительность : 1 ч. 46 м.
Вид битрейта : Постоянный
Битрейт : 384 Кбит/сек
Каналы : 6 каналов
Расположение каналов : Front: L C R, Side: L R, LFE
Частота : 48,0 КГц
Битовая глубина : 16 бит
Метод сжатия : С потерями
Задержка видео : -13 с.
Размер потока : 293 Мбайт (3%)
Язык : Russian
Дата кодирования : UTC 2014-03-09 12:50:39
Дата пометки : UTC 2014-03-09 12:50:44
Аудио #4
Идентификатор : 5
Формат : AC-3
Формат/Информация : Audio Coding 3
Расширение режима : CM (complete main)
Параметр Endianness формата : Big
Идентификатор кодека : ac-3
Продолжительность : 1 ч. 46 м.
Вид битрейта : Постоянный
Битрейт : 384 Кбит/сек
Каналы : 6 каналов
Расположение каналов : Front: L C R, Side: L R, LFE
Частота : 48,0 КГц
Битовая глубина : 16 бит
Метод сжатия : С потерями
Задержка видео : -13 с.
Размер потока : 293 Мбайт (3%)
Язык : English
Дата кодирования : UTC 2014-03-09 12:50:39
Дата пометки : UTC 2014-03-09 12:50:44
Текст #1
Идентификатор : 6
Формат : Timed text
Режим смешивания : sbtl
Идентификатор кодека : tx3g
Продолжительность : 1 ч. 46 м.
Вид битрейта : Переменный
Битрейт : 74 бит/сек
Задержка видео : -13 с.
Размер потока : 57,9 Кбайт (0%)
Язык : English
Дата кодирования : UTC 2014-03-09 12:50:39
Дата пометки : UTC 2014-03-09 12:50:39
Текст #2
Идентификатор : 7
Формат : Apple text
Идентификатор кодека : text
Продолжительность : 1 ч. 46 м.
Вид битрейта : Переменный
Битрейт : 0 бит/сек
Задержка видео : -13 с.
Размер потока : 305 байт (0%)
Язык : English
Дата кодирования : UTC 2014-03-09 12:50:45
Дата пометки : UTC 2014-03-09 12:50:45
Меню
00:00:00.000 : Main Titles/Shangri-La
00:10:08.190 : Thin Red Line
00:17:37.638 : A-List Party
00:27:19.846 : Job Offer
00:37:29.080 : First Night in Town
00:46:48.931 : Score!
00:57:03.753 : Orientation
01:05:32.595 : Corporate Etiquette
01:20:53.014 : Spooky
01:29:32.575 : What's Hot, What's Not
01:35:52.371 : Amazing Buzz


Качество: BDRip 720p
Формат: M4V
Видео кодек: AVC
Аудио кодек: AAC | АС3
Видео №1: 1280x688 (1.85:1), 25.000 fps, MPEG-4 AVC ~4 800 kbps avg
Видео №2: 640x344 (1.85:1), 25.000 fps, MPEG-4 AVC ~773 kbps avg
Аудио №1: 48.0 kHz, Advanced Audio Codec LC, 2/0 (L,R) ch, ~164 kbps | RUS
Аудио №2: 48.0 kHz, Advanced Audio Codec LC, 2/0 (L,R) ch, ~163 kbps | ENG
Аудио №3: 48.0 kHz, AC3 Dolby Digital, 3/2 (L,C,R,l,r) + LFE ch, ~384 kbps | RUS
Аудио №4: 48.0 kHz, AC3 Dolby Digital, 3/2 (L,C,R,l,r) + LFE ch, ~384 kbps | ENG
Формат субтитров: Timed text, Apple text
General
Полное имя : How to Lose Friends (HD).m4v
Формат : MPEG-4
Идентификатор кодека : M4V
Размер файла : 4,39 Гбайт
Продолжительность : 1 ч. 46 м.
Режим общего битрейта : Переменный
Общий поток : 5890 Кбит/сек
Название фильма : How to Lose Friends and Alienate People
Исполнитель : Robert B. Weide
Жанр : Comedy
Дата записи : UTC 2009-02-17 08:00:00
Дата кодирования : UTC 2014-03-09 12:37:01
Дата пометки : UTC 2014-03-09 12:47:18
Правообладатель : © 2008 Alienate Limited, UK Film Council and Channel Four Television Corporation. All Rights Reserved.
Обложка : Yes
sonm : How to Lose Friends and Alienate People
Видео #1
Идентификатор : 1
Формат : AVC
Формат/Информация : Advanced Video Codec
Профиль формата : High@L3.1
Параметр CABAC формата : Нет
Параметр ReFrames формата : 3 кадра
Идентификатор кодека : avc1
Идентификатор кодека/Информация : Advanced Video Coding
Продолжительность : 1 ч. 46 м.
Вид битрейта : Переменный
Битрейт : 4800 Кбит/сек
Ширина : 1280 пикселей
Высота : 688 пикселей
Соотношение сторон : 1,85:1
Режим частоты кадров : Постоянный
Частота кадров : 25,000 кадров/сек
Цветовое пространство : YUV
Субдискретизация насыщенности : 4:2:0
Битовая глубина : 8 бит
Тип развёртки : Прогрессивная
Бит/(Пиксели*Кадры) : 0.218
Размер потока : 3,56 Гбайт (81%)
Библиотека кодирования : x264 core 130 r2273 b3065e6
Настройки программы : cabac=0 / ref=3 / deblock=1:-3:-3 / analyse=0x3:0x113 / me=umh / subme=9 / psy=1 / psy_rd=1.00:0.00 / mixed_ref=1 / me_range=32 / chroma_me=1 / trellis=0 / 8x8dct=1 / cqm=0 / deadzone=21,11 / fast_pskip=1 / chroma_qp_offset=-2 / threads=18 / lookahead_threads=1 / sliced_threads=0 / nr=0 / decimate=1 / interlaced=0 / bluray_compat=0 / constrained_intra=0 / bframes=8 / b_pyramid=0 / b_adapt=1 / b_bias=0 / direct=1 / weightb=0 / open_gop=0 / weightp=0 / keyint=250 / keyint_min=25 / scenecut=40 / intra_refresh=0 / rc_lookahead=40 / rc=2pass / mbtree=1 / bitrate=4800 / ratetol=1.0 / qcomp=0.60 / qpmin=4 / qpmax=69 / qpstep=4 / cplxblur=20.0 / qblur=0.5 / vbv_maxrate=9500 / vbv_bufsize=9500 / nal_hrd=none / ip_ratio=1.40 / aq=1:0.80
Язык : English
Дата кодирования : UTC 2014-03-09 12:37:01
Дата пометки : UTC 2014-03-09 12:37:50
Основные цвета : BT.709-5, BT.1361, IEC 61966-2-4, SMPTE RP177
Характеристики трансфера : BT.709-5, BT.1361
Коэффициенты матрицы : BT.709-5, BT.1361, IEC 61966-2-4 709, SMPTE RP177
Видео #2
Идентификатор : 8
Формат : JPEG
Идентификатор кодека : jpeg
Продолжительность : 1 ч. 46 м.
Вид битрейта : Переменный
Битрейт : 773 бит/сек
Ширина : 640 пикселей
Высота : 344 пикселя
Соотношение сторон : 1,85:1
Режим частоты кадров : Переменный
Частота кадров : 0,002 кадр/сек
Минимальная частота кадров : 0,001 кадр/сек
Максимальная частота кадров : 0,003 кадр/сек
Цветовое пространство : YUV
Субдискретизация насыщенности : 4:2:0
Битовая глубина : 8 бит
Метод сжатия : С потерями
Бит/(Пиксели*Кадры) : 1.756
Размер потока : 519 Кбайт (0%)
Язык : English
Дата кодирования : UTC 2014-03-09 12:46:53
Дата пометки : UTC 2014-03-09 12:46:53
Аудио #1
Идентификатор : 2
Формат : AAC
Формат/Информация : Advanced Audio Codec
Профиль формата : LC
Идентификатор кодека : 40
Продолжительность : 1 ч. 46 м.
Вид битрейта : Переменный
Битрейт : 164 Кбит/сек
Максимальный битрейт : 255 Кбит/сек
Каналы : 2 канала
Расположение каналов : Front: L R
Частота : 48,0 КГц
Метод сжатия : С потерями
Задержка видео : -6 с. 667 мс.
Размер потока : 125 Мбайт (3%)
Язык : Russian
Дата кодирования : UTC 2014-03-09 12:46:31
Дата пометки : UTC 2014-03-09 12:46:49
Аудио #2
Идентификатор : 3
Формат : AAC
Формат/Информация : Advanced Audio Codec
Профиль формата : LC
Идентификатор кодека : 40
Продолжительность : 1 ч. 46 м.
Вид битрейта : Переменный
Битрейт : 163 Кбит/сек
Максимальный битрейт : 252 Кбит/сек
Каналы : 2 канала
Расположение каналов : Front: L R
Частота : 48,0 КГц
Метод сжатия : С потерями
Задержка видео : -6 с. 667 мс.
Размер потока : 124 Мбайт (3%)
Язык : English
Дата кодирования : UTC 2014-03-09 12:46:31
Дата пометки : UTC 2014-03-09 12:46:50
Аудио #3
Идентификатор : 4
Формат : AC-3
Формат/Информация : Audio Coding 3
Расширение режима : CM (complete main)
Параметр Endianness формата : Big
Идентификатор кодека : ac-3
Продолжительность : 1 ч. 46 м.
Вид битрейта : Постоянный
Битрейт : 384 Кбит/сек
Каналы : 6 каналов
Расположение каналов : Front: L C R, Side: L R, LFE
Частота : 48,0 КГц
Битовая глубина : 16 бит
Метод сжатия : С потерями
Задержка видео : -6 с. 667 мс.
Размер потока : 293 Мбайт (7%)
Язык : Russian
Дата кодирования : UTC 2014-03-09 12:46:31
Дата пометки : UTC 2014-03-09 12:46:39
Аудио #4
Идентификатор : 5
Формат : AC-3
Формат/Информация : Audio Coding 3
Расширение режима : CM (complete main)
Параметр Endianness формата : Big
Идентификатор кодека : ac-3
Продолжительность : 1 ч. 46 м.
Вид битрейта : Постоянный
Битрейт : 384 Кбит/сек
Каналы : 6 каналов
Расположение каналов : Front: L C R, Side: L R, LFE
Частота : 48,0 КГц
Битовая глубина : 16 бит
Метод сжатия : С потерями
Задержка видео : -6 с. 667 мс.
Размер потока : 293 Мбайт (7%)
Язык : English
Дата кодирования : UTC 2014-03-09 12:46:31
Дата пометки : UTC 2014-03-09 12:46:39
Текст #1
Идентификатор : 6
Формат : Timed text
Режим смешивания : sbtl
Идентификатор кодека : tx3g
Продолжительность : 1 ч. 46 м.
Вид битрейта : Переменный
Битрейт : 74 бит/сек
Задержка видео : -6 с. 667 мс.
Размер потока : 57,9 Кбайт (0%)
Язык : English
Дата кодирования : UTC 2014-03-09 12:46:31
Дата пометки : UTC 2014-03-09 12:46:32
Текст #2
Идентификатор : 7
Формат : Apple text
Идентификатор кодека : text
Продолжительность : 1 ч. 46 м.
Вид битрейта : Переменный
Битрейт : 0 бит/сек
Задержка видео : -6 с. 667 мс.
Размер потока : 305 байт (0%)
Язык : English
Дата кодирования : UTC 2014-03-09 12:46:50
Дата пометки : UTC 2014-03-09 12:46:50
Меню
00:00:00.000 : Main Titles/Shangri-La
00:10:08.190 : Thin Red Line
00:17:37.638 : A-List Party
00:27:19.846 : Job Offer
00:37:29.080 : First Night in Town
00:46:48.931 : Score!
00:57:03.753 : Orientation
01:05:32.595 : Corporate Etiquette
01:20:53.014 : Spooky
01:29:32.575 : What's Hot, What's Not
01:35:52.371 : Amazing Buzz


Дополнительная информация: релиз подготовлен для просмотра на Apple TV, iPad, iPhone, iPod Touch.
Для просмотра данного релиза на компьютере с ОС Windows рекомендуется использовать VLC media player



   Похожие торренты   Торрент   Размер 
В этой теме нет новых непрочитанных сообщений. Как потерять друзей и заставить всех тебя ненавидеть / How to Lose Friends & Alienate People (2008) HDRip от Scarabey | D

57 | 6

749.5 МБ

В этой теме нет новых непрочитанных сообщений. Убей своих друзей / Kill Your Friends (2015) BDRip 720p | L2

435 | 42

4.51 ГБ

В этой теме нет новых непрочитанных сообщений. Убей своих друзей / Kill Your Friends (2015) BDRip 720p | D | iTunes

384 | 20

4.64 ГБ

В этой теме нет новых непрочитанных сообщений. Убей своих друзей / Kill Your Friends (2015) BDRip-AVC | iTunes

57 | 5

1.46 ГБ

В этой теме нет новых непрочитанных сообщений. Мои друзья Тигруля и Винни: Сказки для друзей / My Friends Tigger & Pooh's Friendly Tails (2008) DVDRip

181 | 11

1.03 ГБ

В этой теме нет новых непрочитанных сообщений. У меня мало друзей / У меня друзей не много / Boku wa tomodachi ga sukunai / I Don't Have Many Friends (2014) DVDRip | L

29 | 8

2.05 ГБ

В этой теме нет новых непрочитанных сообщений. Пентхаус представляет Таша Рейгн и друзей / Penthouse präsentiert Tasha Reign and Friends (2012) BDRip от KinoRay & Sheikn

48 | 7

1.09 ГБ




Вы не можете начинать темы
Вы не можете отвечать на сообщения
Вы не можете редактировать свои сообщения
Вы не можете удалять свои сообщения
Вы не можете добавлять вложения

Перейти:  
 Вход
ppkBB3cker v.2 © 2008-2014 @ PPK
[ Time : 0.051s | 20 Queries | GZIP : Off ]

cron