img image001 image001 image001 image001 image001 image001 image001 image001 image001 image001 image001 image001 image001 image001 image001 image001

Planets Sun Sun Sun
Статистика раздачи
Автор: Nickolas3434 | Размер: 2.07 ГБ | Добавлен: 23 июн 2017
Раздают: 4    Качают: 0
Скачать торрент
Скачать торрент
Описание торрента

СообщениеДобавлено: 23 июн 2017 

Между небом и землей / Just Like Heaven


Перевод: Профессиональный (полное дублирование)
Субтитры: Русские, Английские
Формат: HDTVRip-AVC, MKV, H.264, AC3
Страна: США
Режиссер: Марк Уотерс
Жанр: Фэнтези, комедия, мелодрама
Продолжительность: 01:30:52
Год выпуска: 2005
В ролях: Риз Уизерспун, Марк Руффало, Донал Лог, Дина Спайби, Бен Шенкман, Джон Хидер, Ивана Милишевич, Кэролайн Аарон, Розалинд Чао, Рон Кэнада
Описание: Вселившись в арендованную квартиру в Сан-Франциско и начав наводить там порядок, Дэвид неожиданно встречает в своем новом жилище привлекательную молодую женщину Элизабет, которая уверяет его, что именно она является хозяйкой этих апартаментов.
Когда же Дэвид начинает склоняться к мысли, что произошло какое-то недоразумение, Элизабет исчезает так же внезапно и загадочно, как и появилась. Замена замков не останавливает красотку: ее таинственные появления и исчезновения продолжают вносить сумятицу в жизнь Дэвида. Убедившись в том, что она привидение, Дэвид старается помочь ей навсегда остаться в потустороннем мире.
Однако, открыв в себе невероятные возможности — например, способность проходить сквозь стены, — Элизабет начинает убеждать себя в том, что она каким-то образом еще жива и поэтому не собирается перебираться на тот свет насовсем. По мере того как оба пытаются выяснить истинную причину происходящего, Дэвид и Элизабет влюбляются друг в друга. Однако перспективы их совместной жизни становятся все более и более призрачными…




Видео: 1152x648 (16:9), 25 fps, AVC MPEG-4 (x264), , ~ 2250 kbps avg, 0.121 bit/pixel
Аудио #1: Русский:48 kHz, AC3, 3/2 (L,C,R,l,r) + LFE ch, ~384 kbps avg [Профессиональный (полное дублирование)]
Аудио #2: Украинский:48 kHz, AC3 Dolby Digital, 2/0 (L,R) ch, ~192 kbps avg [Профессиональный (многоголосый, закадровый)]
Аудио #3: Английский:48 kHz, AC3, 3/2 (L,C,R,l,r) + LFE ch, ~448 kbps avg [Оригинал]
General
Unique ID : 207917293380395105157138379383327418649 (0x9C6B6A04464ACA09A09D8493E66BE919)
Complete name : C:\Users\Юрик\Desktop\Между небом и землёй (MKV)_[tfile.ru].mkv
Format : Matroska
Format version : Version 4 / Version 2
File size : 2.07 GiB
Duration : 1h 30mn
Overall bit rate : 3 264 Kbps
Encoded date : UTC 2017-06-19 16:17:06
Writing application : mkvmerge v7.4.0 ('Circles') 64bit built on Dec 12 2014 12:19:56
Writing library : libebml v1.3.0 + libmatroska v1.4.1
_STATISTICS_WRITING_APP : mkvmerge v7.4.0 ('Circles') 64bit built on Dec 12 2014 12:19:56
_STATISTICS_WRITING_DATE_UTC : 2017-06-19 16:17:06
_STATISTICS_TAGS : BPS DURATION NUMBER_OF_FRAMES NUMBER_OF_BYTES
DURATION : 01:30:44.416000000
NUMBER_OF_FRAMES : 170138
NUMBER_OF_BYTES : 304887296

Video
ID : 1
Format : AVC
Format/Info : Advanced Video Codec
Format profile :
Format settings, CABAC : Yes
Format settings, ReFrames : 11 frames
Codec ID : V_MPEG4/ISO/AVC
Duration : 1h 30mn
Bit rate : 2 250 Kbps
Width : 1 152 pixels
Height : 648 pixels
Display aspect ratio : 16:9
Frame rate mode : Constant
Frame rate : 25.000 fps
Color space : YUV
Chroma subsampling : 4:2:0
Bit depth : 8 bits
Scan type : Progressive
Bits/(Pixel*Frame) : 0.121
Stream size : 1.38 GiB (67%)
Writing library : x264 core 88 r1462 7fcffde
Encoding settings : cabac=1 / ref=11 / deblock=1:-2:-1 / analyse=0x3:0x133 / me=umh / subme=10 / psy=1 / psy_rd=1.00:0.00 / mixed_ref=1 / me_range=32 / chroma_me=1 / trellis=2 / 8x8dct=1 / cqm=0 / deadzone=21,11 / fast_pskip=0 / chroma_qp_offset=-2 / threads=12 / sliced_threads=0 / nr=0 / decimate=0 / mbaff=0 / constrained_intra=0 / bframes=9 / b_pyramid=2 / b_adapt=2 / b_bias=0 / direct=3 / wpredb=1 / wpredp=2 / keyint=250 / keyint_min=25 / scenecut=40 / intra_refresh=0 / rc=2pass / mbtree=0 / bitrate=2250 / ratetol=1.0 / qcomp=0.60 / qpmin=10 / qpmax=51 / qpstep=4 / cplxblur=20.0 / qblur=0.5 / ip_ratio=1.40 / pb_ratio=1.30 / aq=1:0.90
Language : English
Default : Yes
Forced : No
_STATISTICS_WRITING_APP : mkvmerge v7.4.0 ('Circles') 64bit built on Dec 12 2014 12:19:56
_STATISTICS_WRITING_DATE_UTC : 2017-06-19 16:17:06
_STATISTICS_TAGS : BPS DURATION NUMBER_OF_FRAMES NUMBER_OF_BYTES
DURATION : 01:30:52.640000000
NUMBER_OF_FRAMES : 136316
NUMBER_OF_BYTES : 1531940815

Audio #1
ID : 2
Format : AC-3
Format/Info : Audio Coding 3
Mode extension : CM (complete main)
Format settings, Endianness : Big
Codec ID : A_AC3
Duration : 1h 30mn
Bit rate mode : Constant
Bit rate : 384 Kbps
Channel(s) : 6 channels
Channel positions : Front: L C R, Side: L R, LFE
Sampling rate : 48.0 KHz
Compression mode : Lossy
Stream size : 250 MiB (12%)
Default : Yes
Forced : No

Audio #2
ID : 3
Format : AC-3
Format/Info : Audio Coding 3
Mode extension : CM (complete main)
Format settings, Endianness : Big
Codec ID : A_AC3
Duration : 1h 30mn
Bit rate mode : Constant
Bit rate : 192 Kbps
Channel(s) : 2 channels
Channel positions : Front: L R
Sampling rate : 48.0 KHz
Compression mode : Lossy
Stream size : 125 MiB (6%)
Default : No
Forced : No

Audio #3
ID : 4
Format : AC-3
Format/Info : Audio Coding 3
Mode extension : CM (complete main)
Format settings, Endianness : Big
Codec ID : A_AC3
Duration : 1h 30mn
Bit rate mode : Constant
Bit rate : 448 Kbps
Channel(s) : 6 channels
Channel positions : Front: L C R, Side: L R, LFE
Sampling rate : 48.0 KHz
Compression mode : Lossy
Stream size : 291 MiB (14%)
Default : No
Forced : No

Text #1
ID : 5
Format : UTF-8
Codec ID : S_TEXT/UTF8
Codec ID/Info : UTF-8 Plain Text
Language : Russian
Default : No
Forced : No

Text #2
ID : 6
Format : UTF-8
Codec ID : S_TEXT/UTF8
Codec ID/Info : UTF-8 Plain Text
Language : English
Default : No
Forced : No

















   Похожие торренты   Торрент   Размер 
В этой теме нет новых непрочитанных сообщений. Между небом и землей / Just Like Heaven (2005) HDTVRip

0 | 1

1.45 ГБ

В этой теме нет новых непрочитанных сообщений. Между небом и землей / Just Like Heaven (2005) WEBRip-AVC | D

23 | 0

1.45 ГБ

В этой теме нет новых непрочитанных сообщений. Между небом и землей / Just Like Heaven (2005) WEB-DL 1080p | D

336 | 11

3.93 ГБ

В этой теме нет новых непрочитанных сообщений. Между небом и землей / Just Like Heaven (2005) WEB-DL 1080p | D

0 | 0

8.98 ГБ

В этой теме нет новых непрочитанных сообщений. Между небом и землей / Just Like Heaven (2005) WEBRip 1080p | D

10 | 0

8.98 ГБ

В этой теме нет новых непрочитанных сообщений. Между небом и землей / Just Like Heaven (2005) WEB-DL 720p от HDClub

116 | 10

3.01 ГБ

В этой теме нет новых непрочитанных сообщений. Между небом и землёй / Just Like Heaven (2005) WEB-DLRip от ivandubskoj | iTunes

143 | 11

744.35 МБ




Вы не можете начинать темы
Вы не можете отвечать на сообщения
Вы не можете редактировать свои сообщения
Вы не можете удалять свои сообщения
Вы не можете добавлять вложения

Перейти:  
 Вход
ppkBB3cker v.2 © 2008-2014 @ PPK
[ Time : 0.044s | 20 Queries | GZIP : Off ]

cron