img image001 image001 image001 image001 image001 image001 image001 image001 image001 image001 image001 image001 image001 image001 image001

Planets Sun Sun Sun
Статистика раздачи
Автор: Nickolas3434 | Размер: 1.59 ГБ | Добавлен: 23 июн 2017
Раздают: 6    Качают: 0
Скачать торрент
Скачать торрент
Описание торрента

СообщениеДобавлено: 23 июн 2017 

Любовь во время гражданской войны / L'amour au temps de la guerre civile / Love in the Time of Civil War


Перевод: Любительский (одноголосый) [озвучка - ГКГ]
Субтитры: Английские (неотключаемые), русские (отключаемые, от Antonio)
Формат: WEBRip, MKV, XviD, АС3/MP3
Страна: Канада
Режиссер: Родриг Жан / Rodrigue Jean
Жанр: драма
Продолжительность: 01:59:58
Год выпуска: 2014
В ролях: Александр Ландри, Жан-Симон Ледюк, Симон Лефебвр, Катрин-Одри Лашапель, Ана Кристина Алва, Эрик Робиду, Ричард Фречетте, Жюли С. Делорме, Жан-Франсуа Бланшар, Тайлер Джейсон Мегарри
Описание: Алекс - молодой наркоман, который продаёт своё тело в Монреале. Его окружают Бруно, Симон, Жанна, Эрик и Вельма - такие же падшие ангелы тёмного и бурного времени, движущиеся по той же беспросветной спирали. Их жизнь - это ежедневная война. Их жизнь - это "возня между дозами" или "колюсь и отдаюсь" .


Видео: 704x384 (1.85:1); 23,976 fps; XviD MPEG-4; ~1515 kbps; 0.234 bit/pixel
Аудио 1: Русский: AC3; 48 KHz; 2 ch (stereo); 192 Kbps [Любительский (одноголосый)]
Аудио 2: Французский: MP3; 48 KHz; 1 ch (mono); 192 Kbps [Оригинал]


Общее :
Формат : Matroska
Версия формата : Version 4 / Version 2
Размер файла : 1,59 Гбайт
Продолжительность : 1 ч. 59 м.
Общий поток : 1901 Кбит/сек
Дата кодирования : UTC 2016-02-25 04:24:35
Программа кодирования : mkvmerge v8.9.0 ('Father Daughter') 64bit
Библиотека кодирования : libebml v1.3.3 + libmatroska v1.4.4

Видео :
Идентификатор : 1
Формат : MPEG-4 Visual
Профиль формата : Advanced Simple@L5
Параметр BVOP формата : 2
Параметр QPel формата : Нет
Параметр GMC формата : Без точки перехода
Параметр матрицы формата : Default (H.263)
Идентификатор кодека : V_MS/VFW/FOURCC / XVID
Идентификатор кодека/Подсказка : XviD
Продолжительность : 1 ч. 59 м.
Битрейт : 1515 Кбит/сек
Ширина : 704 пикселя
Высота : 384 пикселя
Соотношение сторон : 1,85:1
Режим частоты кадров : Постоянный
Частота кадров : 23,976 (23976/1000) кадра/сек
Цветовое пространство : YUV
Субдискретизация насыщенности : 4:2:0
Битовая глубина : 8 бит
Тип развёртки : Прогрессивная
Метод сжатия : С потерями
Бит/(Пиксели*Кадры) : 0.234
Размер потока : 1,27 Гбайт (80%)
Библиотека кодирования : XviD 64
Default : Да
Forced : Нет

Аудио #1 :
Идентификатор : 2
Формат : AC-3
Формат/Информация : Audio Coding 3
Параметр Endianness формата : Big
Идентификатор кодека : A_AC3
Продолжительность : 1 ч. 59 м.
Вид битрейта : Постоянный
Битрейт : 192 Кбит/сек
Каналы : 2 канала
Расположение каналов : Front: L R
Частота : 48,0 КГц
Частота кадров : 31,250 кадров/сек (1536 spf)
Битовая глубина : 16 бит
Метод сжатия : С потерями
Размер потока : 165 Мбайт (10%)
Заголовок : ГейКиногид
Язык : Russian
ServiceKind/String : Complete Main
Default : Да
Forced : Нет

Аудио #2 :
Идентификатор : 3
Формат : MPEG Audio
Версия формата : Version 1
Профиль формата : Layer 3
Идентификатор кодека : A_MPEG/L3
Идентификатор кодека/Подсказка : MP3
Продолжительность : 1 ч. 59 м.
Вид битрейта : Постоянный
Битрейт : 192 Кбит/сек
Каналы : 1 канал
Частота : 48,0 КГц
Частота кадров : 41,667 кадра/сек (1152 spf)
Метод сжатия : С потерями
Размер потока : 165 Мбайт (10%)
Библиотека кодирования : LAME3.99r
Настройки программы : -m m -V 4 -q 3 -lowpass 20.5 -b 192
Default : Нет
Forced : Нет

Текст :
Идентификатор : 4
Формат : UTF-8
Идентификатор кодека : S_TEXT/UTF8
Идентификатор кодека/Информация : UTF-8 Plain Text
Продолжительность : 1 ч. 58 м.
Битрейт : 15 бит/сек
ElementCount : 442
Размер потока : 13,1 Кбайт (0%)
Заголовок : Antonio
Язык : Russian
Default : Да
Forced : Нет


















   Похожие торренты   Торрент   Размер 
В этой теме нет новых непрочитанных сообщений. Любовь тайком / Нежная любовь / L'amour en douce / Love on the Quiet (1985) DVDRip от olegek70 | L1

38 | 3

1.38 ГБ

В этой теме нет новых непрочитанных сообщений. No comment (Артём Темников) [2014, драма, WEBRip] / Драмы

346 | 23

1.46 ГБ

В этой теме нет новых непрочитанных сообщений. Чайки (Элла Манжеева) [2014, драма, WEBRip ] / Драмы

396 | 10

1.37 ГБ

В этой теме нет новых непрочитанных сообщений. No comment (Артём Темников) [2014, драма, WEBRip 720p] / Драмы

147 | 14

3.14 ГБ

В этой теме нет новых непрочитанных сообщений. Когда я снова проживу свою жизнь / One More Time (Роберт Эдвардс) [2015, драма, комедия, музыка, WEBDLRip] MVO / Драмы

3 | 2

1.37 ГБ

В этой теме нет новых непрочитанных сообщений. Любовь, о которой молчат / Un amour a taire / A Love to Hide (2005) DVDRip

82 | 2

744.3 МБ

В этой теме нет новых непрочитанных сообщений. Любовь и свежая вода / Жить одной любовью / D'amour et d'eau fraîche / Living on Love Alone (2010) DVDRip | P

110 | 39

1.46 ГБ




Вы не можете начинать темы
Вы не можете отвечать на сообщения
Вы не можете редактировать свои сообщения
Вы не можете удалять свои сообщения
Вы не можете добавлять вложения

Перейти:  
Для Мосгорсуда, Роскомнадзора и рекламодателей: mosgorsud-torrent[собачка]yandex.ru
 Вход
ppkBB3cker v.2 © 2008-2014 @ PPK
[ Time : 4.501s | 18 Queries | GZIP : Off ]

cron