img image001 image001 image001 image001 image001 image001 image001 image001 image001 image001 image001 image001 image001 image001 image001 image001

Planets Sun Sun Sun
Статистика раздачи
Автор: Nickolas3434 | Размер: 2.88 ГБ | Добавлен: 23 июн 2017
Раздают: 46    Качают: 10
Скачать торрент
Скачать торрент
Описание торрента

СообщениеДобавлено: 23 июн 2017 

Конг: Остров черепа / Kong: Skull Island

Перевод: Профессиональный (полное дублирование) лицензия
Субтитры: Русские, английские
Формат: HDRip-AVC, MKV, H.264, AC3
Страна: США, Вьетнам
Режиссер: Джордан Вот-Робертс
Жанр: фантастика, фэнтези, боевик, приключения
Продолжительность: 01:58:21
Год выпуска: 2017

В ролях: Том Хиддлстон, Сэмюэл Л. Джексон, Джон Гудман, Бри Ларсон, Цзин Тянь, Тоби Кеббелл, Джон Ортис, Кори Хоукинс, Джейсон Митчелл, Ши Уигхэм

Описание: На неизвестный остров в Тихом океане попадает команда ученых, военных и искателей приключений. Они вторгаются во владения могучего Конга и тем самым развязывают сражение между человеком и природой. Очень скоро исследовательская миссия превращается в игру на выживание, ее участники вынуждены буквально прорубать себе путь к спасению.



Видео: 1024x426 (2.40:1), 23.976 fps, AVC MPEG-4 (H.264), ~2422 kbps, 0.232 bit/pixel
Аудио #1: Русский: 48 kHz, AC3 Dolby Digital, 6 ch, ~448 kbps [Профессиональный (полное дублирование)]
Аудио #2: Украинский: 48 kHz, AC3 Dolby Digital, 2 ch, ~160 kbps [Профессиональный (полное дублирование)]
Аудио #3: Английский: 48 kHz, AC3 Dolby Digital, 6 ch, ~448 kbps [Оригинал]

Format : Matroska
Format version : Version 2
File size : 2.88 GiB
Duration : 1 h 58 min
Overall bit rate : 3 480 kb/s
Movie name : Kong: Skull Island (2017) from ExKinoRay
Encoded date : UTC 2017-06-23 04:47:53
Writing application : mkvmerge v5.6.0 ('Kenya Kane') built on May 27 2012 16:44:04
Writing library : libebml v1.2.3 + libmatroska v1.3.0

Video
ID : 1
Format : AVC
Format/Info : Advanced Video Codec
Format profile :
Format settings, CABAC : Yes
Format settings, ReFrames : 12 frames
Codec ID : V_MPEG4/ISO/AVC
Duration : 1 h 58 min
Bit rate : 2 422 kb/s
Width : 1 024 pixels
Height : 426 pixels
Display aspect ratio : 2.40:1
Frame rate mode : Constant
Frame rate : 23.976 (23976/1000) FPS
Color space : YUV
Chroma subsampling : 4:2:0
Bit depth : 8 bits
Scan type : Progressive
Bits/(Pixel*Frame) : 0.232
Stream size : 1.95 GiB (68%)
Title : Enigma
Writing library : x264 core 144 r2525 40bb568
Encoding settings : cabac=1 / ref=12 / deblock=1:-2:-3 / analyse=0x3:0x113 / me=umh / subme=10 / psy=1 / psy_rd=1.00:0.00 / mixed_ref=1 / me_range=32 / chroma_me=1 / trellis=2 / 8x8dct=1 / cqm=0 / deadzone=21,11 / fast_pskip=1 / chroma_qp_offset=-2 / threads=12 / lookahead_threads=3 / sliced_threads=0 / nr=0 / decimate=0 / interlaced=0 / bluray_compat=0 / constrained_intra=0 / bframes=10 / b_pyramid=2 / b_adapt=2 / b_bias=0 / direct=3 / weightb=1 / open_gop=0 / weightp=2 / keyint=240 / keyint_min=23 / scenecut=40 / intra_refresh=0 / rc_lookahead=40 / rc=2pass / mbtree=0 / bitrate=2422 / ratetol=1.0 / qcomp=0.62 / qpmin=0 / qpmax=51 / qpstep=4 / cplxblur=20.0 / qblur=0.5 / vbv_maxrate=50000 / vbv_bufsize=62500 / nal_hrd=none / filler=0 / ip_ratio=1.40 / pb_ratio=1.30 / aq=1:1.00
Language : English
Default : Yes
Forced : No
Color range : Limited
Color primaries : BT.709
Transfer characteristics : BT.709
Matrix coefficients : BT.709

Audio #1
ID : 2
Format : AC-3
Format/Info : Audio Coding 3
Mode extension : CM (complete main)
Format settings, Endianness : Big
Codec ID : A_AC3
Duration : 1 h 58 min
Bit rate mode : Constant
Bit rate : 448 kb/s
Channel(s) : 6 channels
Channel positions : Front: L C R, Side: L R, LFE
Sampling rate : 48.0 kHz
Frame rate : 31.250 FPS (1536 spf)
Compression mode : Lossy
Stream size : 379 MiB (13%)
Title : Dub (Лицензия)
Language : Russian
Default : Yes
Forced : No

Audio #2
ID : 3
Format : AC-3
Format/Info : Audio Coding 3
Mode extension : CM (complete main)
Format settings, Endianness : Big
Codec ID : A_AC3
Duration : 1 h 58 min
Bit rate mode : Constant
Bit rate : 160 kb/s
Channel(s) : 2 channels
Channel positions : Front: L R
Sampling rate : 48.0 kHz
Frame rate : 31.250 FPS (1536 spf)
Compression mode : Lossy
Stream size : 135 MiB (5%)
Language : Ukrainian
Default : No
Forced : No

Audio #3
ID : 4
Format : AC-3
Format/Info : Audio Coding 3
Mode extension : CM (complete main)
Format settings, Endianness : Big
Codec ID : A_AC3
Duration : 1 h 58 min
Bit rate mode : Constant
Bit rate : 448 kb/s
Channel(s) : 6 channels
Channel positions : Front: L C R, Side: L R, LFE
Sampling rate : 48.0 kHz
Frame rate : 31.250 FPS (1536 spf)
Compression mode : Lossy
Stream size : 379 MiB (13%)
Language : English
Default : No
Forced : No

Text #1
ID : 5
Format : UTF-8
Codec ID : S_TEXT/UTF8
Codec ID/Info : UTF-8 Plain Text
Title : Forced
Language : Russian
Default : Yes
Forced : No

Text #2
ID : 6
Format : UTF-8
Codec ID : S_TEXT/UTF8
Codec ID/Info : UTF-8 Plain Text
Title : Full
Language : Russian
Default : No
Forced : No

Text #3
ID : 7
Format : UTF-8
Codec ID : S_TEXT/UTF8
Codec ID/Info : UTF-8 Plain Text
Title : Forced
Language : Ukrainian
Default : No
Forced : No

Text #4
ID : 8
Format : UTF-8
Codec ID : S_TEXT/UTF8
Codec ID/Info : UTF-8 Plain Text
Language : English
Default : No
Forced : No

Menu
00:00:00.000 : en:00:00:00.000
00:08:54.743 : en:00:08:54.743
00:19:51.774 : en:00:19:51.774
00:30:01.133 : en:00:30:01.133
00:40:00.106 : en:00:40:00.106
00:50:13.260 : en:00:50:13.260
01:00:49.729 : en:01:00:49.729
01:10:29.600 : en:01:10:29.600
01:18:05.890 : en:01:18:05.890
01:30:12.657 : en:01:30:12.657
01:39:09.026 : en:01:39:09.026
01:47:05.836 : en:01:47:05.836












   Похожие торренты   Торрент   Размер 
В этой теме нет новых непрочитанных сообщений. Конг: Остров черепа / Kong: Skull Island (Джордан Вот-Робертс) [2017, фантастика, фэнтези, боевик, приключения, HDRip-AVC] DUB / Фантастика

6 | 4

2.27 ГБ

В этой теме нет новых непрочитанных сообщений. Конг: Остров черепа / Kong: Skull Island (Джордан Вот-Робертс) [2017, фантастика, фэнтези, боевик, приключения, WEB-DLRip-AVC] DUB / Фантастика

0 | 6

2.28 ГБ

В этой теме нет новых непрочитанных сообщений. Конг: Остров черепа / Kong: Skull Island (Джордан Вот-Робертс) [2017, фантастика, фэнтези, боевик, приключения, WEB-DLRip-AVC] DUB / Фантастика

6 | 5

1.45 ГБ

В этой теме нет новых непрочитанных сообщений. Конг: Остров черепа / Kong: Skull Island (Джордан Вот-Робертс) [2017, фантастика, фэнтези, боевик, приключения, BDRip] DUB / Фантастика

8 | 9

2.18 ГБ

В этой теме нет новых непрочитанных сообщений. Конг: Остров черепа / Kong: Skull Island (Джордан Вот-Робертс) [2017, фантастика, фэнтези, боевик, приключения, BDRip] DUB / Фантастика

2366 | 111

1.46 ГБ

В этой теме нет новых непрочитанных сообщений. Конг: Остров черепа / Kong: Skull Island (Джордан Вот-Робертс) [2017, фантастика, фэнтези, боевик, приключения, BDRip] DUB / Фантастика

638 | 17

1.46 ГБ

В этой теме нет новых непрочитанных сообщений. Конг: Остров черепа / Kong: Skull Island (Джордан Вот-Робертс) [2017, фантастика, фэнтези, боевик, приключения, BDRip-AVC ] DUB / Фантастика

38 | 4

745.17 МБ




Вы не можете начинать темы
Вы не можете отвечать на сообщения
Вы не можете редактировать свои сообщения
Вы не можете удалять свои сообщения
Вы не можете добавлять вложения

Перейти:  
 Вход
ppkBB3cker v.2 © 2008-2014 @ PPK
[ Time : 0.032s | 16 Queries | GZIP : Off ]

cron