img image001 image001 image001 image001 image001 image001 image001 image001 image001 image001 image001 image001 image001 image001 image001

Planets Sun Sun Sun

COVID-19 - Последняя информация о коронавирусе на сайте Минздрава


Статистика раздачи
Автор: Nickolas3434 | Размер: 1.58 ГБ | Добавлен: 26 июн 2017
Раздают: 45    Качают: 7
Скачать торрент
Скачать торрент
Описание торрента

СообщениеДобавлено: 26 июн 2017 

Информация о фильме
Название: Красный гаолян
Оригинальное название: Hong gao liang
Год выхода: 1987
Жанр: драма, мелодрама, военный
Режиссер: Чжан Имоу
В ролях: Гун Ли, Цзян Вэнь, Тэнь Жуцзюнь, Чжиган Чэнь, Кун Донг, Гогуан Ду, Ху Сяогуан, Чун Хуа Джи, Лю Цзя, Цзя Чжаоцзи
О фильме:
Действие фильма развивается в первой трети ХХ века на северо-востоке Китая. Юную Цзюцзи насильно выдают замуж за больного проказой старика — владельца винокурни. Ее уже несут в красном свадебном паланкине, но один из носильщиков паланкина, молодой и отважный Ю, похищает девушку и тем самым спасает ее от столь незавидной участи. Связав свою судьбу, молодые герои становятся хозяевами винокурни, где производится чудодейственный напиток — крепкое гаоляновое вино, бодрящее дух и исцеляющее многие болезни. Мирную жизнь прерывает вторжение японцев. Вместе с односельчанами Ю и Цзюцзи встают на защиту родных гаоляновых полей. Земля орошается огненно-красным вином и кровью…


Награды:
Берлинский кинофестиваль, 1988 год
Победитель (1):
Золотой Медведь




Страна: Китай
Продолжительность: 01:28:12
Перевод:
1: Профессиональный (двухголосый закадровый, студия "Кубик в кубе")
2:: Профессиональный (дублированный) - Советский дубляж


General
Complete name : H:Le.sorgho.rouge.1987.dvdrip_[1.46]_[teko]Le.sorgho.rouge.1987.dvdrip_[1.46].avi
Format : AVI
Format/Info : Audio Video Interleave
File size : 1.46 GiB
Duration : 1h 28mn
Overall bit rate : 2 367 Kbps
Writing application : VirtualDubMod 1.5.10.3 | www.virtualdub-fr.org || (build 2550/release)
Writing library : VirtualDubMod build 2550/release
Video
ID : 0
Format : MPEG-4 Visual
Format profile : Advanced Simple@L5
Format settings, BVOP : 2
Format settings, QPel : No
Format settings, GMC : No warppoints
Format settings, Matrix : Custom
Codec ID : XVID
Codec ID/Hint : XviD
Duration : 1h 28mn
Bit rate : 1 969 Kbps
Width : 704 pixels
Height : 304 pixels
Display aspect ratio : 2.35:1
Frame rate : 25.000 fps
Color space : YUV
Chroma subsampling : 4:2:0
Bit depth : 8 bits
Scan type : Progressive
Compression mode : Lossy
Bits/(Pixel*Frame) : 0.368
Stream size : 1.21 GiB (83%)
Writing library : XviD 73
Audio #1
ID : 1
Format : AC-3
Format/Info : Audio Coding 3
Mode extension : CM (complete main)
Format settings, Endianness : Big
Codec ID : 2000
Duration : 1h 28mn
Bit rate mode : Constant
Bit rate : 192 Kbps
Channel(s) : 2 channels
Channel positions : Front: L R
Sampling rate : 48.0 KHz
Frame rate : 31.250 fps (1536 spf)
Compression mode : Lossy
Stream size : 121 MiB (8%)
Alignment : Split accross interleaves
Interleave, duration : 40 ms (1.00 video frame)
Interleave, preload duratio : 500 ms
Audio #2
ID : 2
Format : AC-3
Format/Info : Audio Coding 3
Mode extension : CM (complete main)
Format settings, Endianness : Big
Codec ID : 2000
Duration : 1h 28mn
Bit rate mode : Constant
Bit rate : 192 Kbps
Channel(s) : 2 channels
Channel positions : Front: L R
Sampling rate : 48.0 KHz
Frame rate : 31.250 fps (1536 spf)
Compression mode : Lossy
Stream size : 121 MiB (8%)
Alignment : Split accross interleaves
Interleave, duration : 40 ms (1.00 video frame)
Interleave, preload duratio : 500 ms


Файл
Кодек: XviD
Качество: DVDRip
Видео: 704x304 (2.32:1), 25 fps, XviD build 73 ~1967 kbps avg, 0.37 bit/pixel
Звук:
Аудио: 48 kHz, AC3 Dolby Digital, 2/0 (L,R) ch, ~192 kbps - двухголосый
Аудио: 48 kHz, AC3 Dolby Digital, 2/0 (L,R) ch, ~192 kbps - дубляж
Аудио: 48 kHz, AC3 Dolby Digital, 2/0 (L,R) ch, ~192 kbps - оригинал (отдельно)
Субтитры: русские, английские

Релиз:

   Похожие торренты   Торрент   Размер 
В этой теме нет новых непрочитанных сообщений. Красный гаолян / Hong gao liang (1987) DVD9 | Custom

5 | 2

5.31 ГБ

В этой теме нет новых непрочитанных сообщений. Подними красный фонарь / Da hong deng long gao gao gua (1991) BDRip | L1

9 | 3

2.18 ГБ

В этой теме нет новых непрочитанных сообщений. Красный мастер Шаолиня / Shaolin Red Master / Hong yi la ma (1978) DVD5 | A

2 | 3

3.89 ГБ

В этой теме нет новых непрочитанных сообщений. Изнасилованная ангелом 4 / Qiang jian zhong ji pian: Zui hou gao yang (1999) DVDRip | L1

13 | 0

784.27 МБ

В этой теме нет новых непрочитанных сообщений. Только одна ночь / Tian liang zhi qian (2016) BDRemux 1080р | L1, L2

0 | 3

20.94 ГБ

В этой теме нет новых непрочитанных сообщений. Парень из Квантунга / Kid From Kwangtung / Guang Dong liang zai yu (1982) DVD5 | A

0 | 16

4.3 ГБ

В этой теме нет новых непрочитанных сообщений. Паром в Гонконг / Ferry to Hong Kong (1959) DVDRip | Sub

2 | 3

1.37 ГБ




Вы не можете начинать темы
Вы не можете отвечать на сообщения
Вы не можете редактировать свои сообщения
Вы не можете удалять свои сообщения
Вы не можете добавлять вложения

Перейти:  
Контактная информация: rstracker[пёсик]yandex.ru
 Вход
ppkBB3cker v.2 © 2008-2014 @ PPK
[ Time : 0.023s | 19 Queries | GZIP : Off ]

cron