img image001 image001 image001 image001 image001 image001 image001 image001 image001 image001 image001 image001 image001 image001 image001

Planets Sun Sun Sun
Статистика раздачи
Автор: Снежана | Размер: 4.04 ГБ | Добавлен: 22 июл 2013
Раздают: 21    Качают: 12
Скачать торрент
Скачать торрент
Описание торрента

СообщениеДобавлено: 22 июл 2013 

«От любви до ненависти...Одна SMS»


Страна: США
Жанр: драма, мелодрама, комедия
Год выпуска: 2012
Продолжительность: 01:36:46

Перевод: Профессиональный (дублированный) Лицензия
Cубтитры: английский
Оригинальная аудиодорожка: английский

Режиссер: Лиза Азуэлос / Lisa Azuelos

В ролях: Майли Сайрус, Деми Мур, Эшли Грин, Адам Дж. Севани, Жан-Люк Билодо, Томас Джейн, Дуглас Бут, Джина Гершон, Фишер Стивенс, Остин Николс...

Роли дублировали: Даниил Эльдаров, Вероника Саркисова

Описание: Лола или Лол, как ее зовут друзья, живет в пригороде Чикаго, как и все, прогуливает занятия, чатится с подругами, устраивает вечеринки и мечтает о настоящей любви. Поездка в Париж — это шанс для Лолы и ее одноклассников оторваться по полной. Безудержный шопинг, бесконтрольные ночные вылазки и первое романтическое свидание — все это оказывается под угрозой. Ведь мать Лолы, мягко говоря, не обрадована результатами ее экзаменов.





Исходник: Blu-ray 1080p
Качество: BDRip 720p
Формат: MKV

Видео: 1280x534 (2.40:1), 23.976 fps, AVC ~ 4000 kbps avg, 0.244 bit/pixel
Аудио 1: 48 kHz, AC3, 6 ch, 448 kbps, русский
Аудио 2: 48 kHz, DTS, 6 ch, 1536 kbps, английский

Раздача от:

Полное имя : Leto.Odnoklassniki.Lybov.2012.D.BDRip.720p_[Youtracker].mkv
Формат : Matroska
Версия формата : Version 2
Размер файла : 4,04 Гбайт
Продолжительность : 1 ч. 37 м.
Общий поток : 5949 Кбит/сек
Дата кодирования : UTC 2012-07-26 22:48:38
Программа кодирования : mkvmerge v5.5.0 ('Healer') built on Apr 6 2012 21:43:24
Библиотека кодирования : libebml v1.2.3 + libmatroska v1.3.0

Видео
Идентификатор : 1
Формат : AVC
Формат/Информация : Advanced Video Codec
Профиль формата : High@L4.1
Параметр CABAC формата : Да
Параметр ReFrames формата : 12 кадров
Идентификатор кодека : V_MPEG4/ISO/AVC
Продолжительность : 1 ч. 37 м.
Битрейт : 4000 Кбит/сек
Ширина : 1280 пикселей
Высота : 534 пикселя
Соотношение сторон : 2,40:1
Частота кадров : 23,976 кадра/сек
Цветовое пространство : YUV
Субдискретизация насыщенности : 4:2:0
Битовая глубина : 8 бит
Тип развёртки : Прогрессивная
Бит/(Пиксели*Кадры) : 0.244
Размер потока : 2,63 Гбайт (65%)
Библиотека кодирования : x264 core 125 r2200 999b753
Настройки программы : cabac=1 / ref=12 / deblock=1:-2:-2 / analyse=0x3:0x113 / me=umh / subme=10 / psy=1 / psy_rd=1.00:0.00 / mixed_ref=1 / me_range=32 / chroma_me=1 / trellis=2 / 8x8dct=1 / cqm=0 / deadzone=21,11 / fast_pskip=0 / chroma_qp_offset=-2 / threads=18 / lookahead_threads=3 / sliced_threads=0 / nr=0 / decimate=0 / interlaced=0 / bluray_compat=0 / constrained_intra=0 / bframes=8 / b_pyramid=2 / b_adapt=2 / b_bias=0 / direct=3 / weightb=1 / open_gop=0 / weightp=2 / keyint=240 / keyint_min=24 / scenecut=40 / intra_refresh=0 / rc_lookahead=120 / rc=2pass / mbtree=1 / bitrate=4000 / ratetol=1.0 / qcomp=0.70 / qpmin=0 / qpmax=69 / qpstep=4 / cplxblur=20.0 / qblur=0.5 / ip_ratio=1.40 / aq=1:1.10
Язык : English
Default : Да
Forced : Нет

Аудио #1
Идентификатор : 2
Формат : AC-3
Формат/Информация : Audio Coding 3
Расширение режима : CM (complete main)
Параметр Endianness формата : Big
Идентификатор кодека : A_AC3
Продолжительность : 1 ч. 37 м.
Вид битрейта : Постоянный
Битрейт : 448 Кбит/сек
Каналы : 6 каналов
Расположение каналов : Front: L C R, Side: L R, LFE
Частота : 48,0 КГц
Битовая глубина : 16 бит
Метод сжатия : С потерями
Задержка видео : 930 мс.
Размер потока : 312 Мбайт (8%)
Язык : Russian
Default : Да
Forced : Нет

Аудио #2
Идентификатор : 3
Формат : DTS
Формат/Информация : Digital Theater Systems
Идентификатор кодека : A_DTS
Продолжительность : 1 ч. 37 м.
Вид битрейта : Постоянный
Битрейт : 1510 Кбит/сек
Каналы : 6 каналов
Расположение каналов : Front: L C R, Side: L R, LFE
Частота : 48,0 КГц
Битовая глубина : 24 бит
Метод сжатия : С потерями
Размер потока : 1,03 Гбайт (25%)
Язык : English
Default : Нет
Forced : Нет

Текст
Идентификатор : 4
Формат : PGS
Режим смешивания : zlib
Идентификатор кодека : S_HDMV/PGS
Идентификатор кодека/Информация : The same subtitle format used on BDs/HD-DVDs
Язык : English
Default : Да
Forced : Нет

Меню
00:00:00.000 : en:00:00:00.000
00:06:39.232 : en:00:06:39.232
00:11:13.631 : en:00:11:13.631
00:18:52.757 : en:00:18:52.757
00:25:10.592 : en:00:25:10.592
00:30:29.995 : en:00:30:29.995
00:35:37.052 : en:00:35:37.052
00:41:43.042 : en:00:41:43.042
00:48:14.308 : en:00:48:14.308
00:55:46.385 : en:00:55:46.385
00:59:36.698 : en:00:59:36.698
01:06:38.077 : en:01:06:38.077
01:11:45.968 : en:01:11:45.968
01:16:51.941 : en:01:16:51.941
01:23:26.752 : en:01:23:26.752
01:31:34.906 : en:01:31:34.906






   Похожие торренты   Торрент   Размер 
В этой теме нет новых непрочитанных сообщений. Лето. Одноклассники. Любовь / LOL (2012) BDRip 1080p | от Youtracker

23 | 10

7.96 ГБ

В этой теме нет новых непрочитанных сообщений. Лето. Одноклассники. Любовь / LOL (2012) HDRip от Youtracker

110 | 7

745.36 МБ

В этой теме нет новых непрочитанных сообщений. Лето. Одноклассники. Любовь / LOL (2012) DVD9 от Youtracker

3 | 4

6.07 ГБ

В этой теме нет новых непрочитанных сообщений. Лето. Одноклассники. Любовь / LOL (2012) HDRip от Youtracker

168 | 9

1.46 ГБ

В этой теме нет новых непрочитанных сообщений. Лето. Одноклассники. Любовь / LOL (2012) DVD5 от Youtracker | сжатый

12 | 3

4.35 ГБ

В этой теме нет новых непрочитанных сообщений. Лето. Одноклассники. Любовь / LOL (2012) Blu-ray 1080i от HDCLUB и Youtracker | лицензия

0 | 3

18.91 ГБ

В этой теме нет новых непрочитанных сообщений. Лето. Одноклассники. Любовь / LOL (2012) BDRip от HQCLUB

746 | 25

1.45 ГБ




Вы не можете начинать темы
Вы не можете отвечать на сообщения
Вы не можете редактировать свои сообщения
Вы не можете удалять свои сообщения
Вы не можете добавлять вложения

Перейти:  
Для Мосгорсуда, Роскомнадзора и рекламодателей: mosgorsud-torrent[собачка]yandex.ru
 Вход
ppkBB3cker v.2 © 2008-2014 @ PPK
[ Time : 0.040s | 16 Queries | GZIP : Off ]

cron