img image001 image001 image001 image001 image001 image001 image001 image001 image001 image001 image001 image001 image001 image001 image001 image001

Planets Sun Sun Sun
Статистика раздачи
Автор: Nickolas3434 | Размер: 2.27 ГБ | Добавлен: 28 июн 2017
Раздают: 6    Качают: 4
Скачать торрент
Скачать торрент
Описание торрента

СообщениеДобавлено: 28 июн 2017 

Конг: Остров черепа / Kong: Skull Island

Перевод: Профессиональный (полное дублирование) лицензия
Субтитры: Русские, английские
Формат: HDRip-AVC, MKV, H.264, AC3
Страна: США, Вьетнам
Режиссер: Джордан Вот-Робертс
Жанр: фантастика, фэнтези, боевик, приключения
Продолжительность: 01:58:21
Год выпуска: 2017

В ролях: Том Хиддлстон, Сэмюэл Л. Джексон, Джон Гудман, Бри Ларсон, Цзин Тянь, Тоби Кеббелл, Джон Ортис, Кори Хоукинс, Джейсон Митчелл, Ши Уигхэм

Описание: На неизвестный остров в Тихом океане попадает команда ученых, военных и искателей приключений. Они вторгаются во владения могучего Конга и тем самым развязывают сражение между человеком и природой. Очень скоро исследовательская миссия превращается в игру на выживание, ее участники вынуждены буквально прорубать себе путь к спасению.



Видео: 960x400 (2.40:1), 23.976 fps, AVC MPEG-4 (H.264), ~1926 kbps, 0.209 bit/pixel
Аудио #1: Русский: 48 kHz, AC3 Dolby Digital, 6 ch, ~384 kbps [Профессиональный (полное дублирование)]
Аудио #2: Английский: 48 kHz, AC3 Dolby Digital, 6 ch, ~384 kbps [Оригинал]

Format : Matroska
Format version : Version 4 / Version 2
File size : 2.27 GiB
Duration : 1h 58 min
Overall bit rate : 2 748 kb/s
Movie name : Конг: Остров черепа / Kong: Skull Island (2017) :: AFM ::
Encoded date : UTC 2017-06-24 12:07:00
Writing application : mkvmerge v8.3.0 ('Over the Horizon') 32bit
Writing library : libebml v1.3.1 + libmatroska v1.4.2

Video
ID : 1
Format : AVC
Format/Info : Advanced Video Codec
Format profile :
Format settings, CABAC : Yes
Format settings, ReFrames : 12 frames
Codec ID : V_MPEG4/ISO/AVC
Duration : 1h 58 min
Bit rate : 1 926 kb/s
Width : 960 pixels
Height : 400 pixels
Display aspect ratio : 2.40:1
Frame rate mode : Constant
Frame rate : 23.976 (24000/1001) FPS
Color space : YUV
Chroma subsampling : 4:2:0
Bit depth : 8 bits
Scan type : Progressive
Bits/(Pixel*Frame) : 0.209
Stream size : 1.59 GiB (70%)
Title : HDRip by AFM
Writing library : x264 core 150 r2833+58 090e24f t_mod_Custom [8-bit@all X86_64]
Encoding settings : cabac=1 / ref=12 / deblock=1:-2:-2 / analyse=0x3:0x113 / me=umh / subme=10 / psy=1 / fade_compensate=0.00 / psy_rd=1.00:0.00 / mixed_ref=1 / me_range=32 / chroma_me=0 / trellis=2 / 8x8dct=1 / cqm=0 / deadzone=21,11 / fast_pskip=0 / chroma_qp_offset=-2 / threads=6 / lookahead_threads=1 / sliced_threads=0 / nr=0 / decimate=1 / interlaced=0 / bluray_compat=0 / constrained_intra=0 / fgo=0 / bframes=12 / b_pyramid=2 / b_adapt=2 / b_bias=0 / direct=1 / weightb=1 / open_gop=0 / weightp=2 / keyint=240 / keyint_min=23 / scenecut=40 / intra_refresh=0 / rc_lookahead=60 / rc=crf / mbtree=0 / crf=18.8000 / qcomp=0.65 / qpmin=0:0:0 / qpmax=69:69:69 / qpstep=4 / vbv_maxrate=50000 / vbv_bufsize=62500 / crf_max=0.0 / nal_hrd=none / filler=0 / ip_ratio=1.35 / pb_ratio=1.30 / aq=3:0.90 / aq-sensitivity=10.00 / aq-factor=1.00:1.00:1.00 / aq2=0 / aq3=0 / zones=156350,170311,q=30
Language : English
Default : Yes
Forced : No

Audio #1
ID : 2
Format : AC-3
Format/Info : Audio Coding 3
Mode extension : CM (complete main)
Format settings, Endianness : Big
Codec ID : A_AC3
Duration : 1h 58 min
Bit rate mode : Constant
Bit rate : 384 kb/s
Channel(s) : 6 channels
Channel positions : Front: L C R, Side: L R, LFE
Sampling rate : 48.0 kHz
Frame rate : 31.250 FPS (1536 spf)
Compression mode : Lossy
Stream size : 325 MiB (14%)
Title : Dub, AC3 5.1 ~384 kbps
Language : Russian
Default : No
Forced : No

Audio #2
ID : 3
Format : AC-3
Format/Info : Audio Coding 3
Mode extension : CM (complete main)
Format settings, Endianness : Big
Codec ID : A_AC3
Duration : 1h 58 min
Bit rate mode : Constant
Bit rate : 384 kb/s
Channel(s) : 6 channels
Channel positions : Front: L C R, Side: L R, LFE
Sampling rate : 48.0 kHz
Frame rate : 31.250 FPS (1536 spf)
Compression mode : Lossy
Stream size : 325 MiB (14%)
Title : Original, AC3 5.1 ~384 kbps
Language : English
Default : No
Forced : No

Text #1
ID : 4
Format : UTF-8
Codec ID : S_TEXT/UTF8
Codec ID/Info : UTF-8 Plain Text
Title : forced
Language : Russian
Default : Yes
Forced : No

Text #2
ID : 5
Format : UTF-8
Codec ID : S_TEXT/UTF8
Codec ID/Info : UTF-8 Plain Text
Language : Russian
Default : No
Forced : No

Text #3
ID : 6
Format : UTF-8
Codec ID : S_TEXT/UTF8
Codec ID/Info : UTF-8 Plain Text
Language : English
Default : No
Forced : No

Menu
00:00:00.000 : en:00:00:00.000
00:08:54.743 : en:00:08:54.743
00:19:51.774 : en:00:19:51.774
00:30:01.133 : en:00:30:01.133
00:40:00.106 : en:00:40:00.106
00:50:13.260 : en:00:50:13.260
01:00:49.729 : en:01:00:49.729
01:10:29.600 : en:01:10:29.600
01:18:05.890 : en:01:18:05.890
01:30:12.657 : en:01:30:12.657
01:39:09.026 : en:01:39:09.026
01:47:05.836 : en:01:47:05.836












   Похожие торренты   Торрент   Размер 
В этой теме нет новых непрочитанных сообщений. Конг: Остров черепа / Kong: Skull Island (Джордан Вот-Робертс) [2017, фантастика, фэнтези, боевик, приключения, HDRip-AVC] 2xDUB (rus, ukr) / Фантастика

46 | 10

2.88 ГБ

В этой теме нет новых непрочитанных сообщений. Конг: Остров черепа / Kong: Skull Island (Джордан Вот-Робертс) [2017, фантастика, фэнтези, боевик, приключения, BDRip] DUB / Фантастика

17 | 5

2.18 ГБ

В этой теме нет новых непрочитанных сообщений. Конг: Остров черепа / Kong: Skull Island (Джордан Вот-Робертс) [2017, фантастика, фэнтези, боевик, приключения, WEB-DLRip-AVC] DUB / Фантастика

6 | 5

1.45 ГБ

В этой теме нет новых непрочитанных сообщений. Конг: Остров черепа / Kong: Skull Island (Джордан Вот-Робертс) [2017, фантастика, фэнтези, боевик, приключения, BDRip] DUB / Фантастика

638 | 17

1.46 ГБ

В этой теме нет новых непрочитанных сообщений. Конг: Остров черепа / Kong: Skull Island (Джордан Вот-Робертс) [2017, фантастика, фэнтези, боевик, приключения, WEB-DLRip-AVC] DUB / Фантастика

0 | 6

2.28 ГБ

В этой теме нет новых непрочитанных сообщений. Конг: Остров черепа / Kong: Skull Island (Джордан Вот-Робертс) [2017, фантастика, фэнтези, боевик, приключения, BDRip] DUB / Фантастика

8 | 9

2.18 ГБ

В этой теме нет новых непрочитанных сообщений. Конг: Остров черепа / Kong: Skull Island (Джордан Вот-Робертс) [2017, фантастика, фэнтези, боевик, приключения, BDRip] DUB / Фантастика

2366 | 111

1.46 ГБ




Вы не можете начинать темы
Вы не можете отвечать на сообщения
Вы не можете редактировать свои сообщения
Вы не можете удалять свои сообщения
Вы не можете добавлять вложения

Перейти:  
 Вход
ppkBB3cker v.2 © 2008-2014 @ PPK
[ Time : 0.027s | 16 Queries | GZIP : Off ]

cron