img image001 image001 image001 image001 image001 image001 image001 image001 image001 image001 image001 image001 image001 image001 image001 image001

Planets Sun Sun Sun
Статистика раздачи
Автор: Nickolas3434 | Размер: 1.52 ГБ | Добавлен: 30 июн 2017
Раздают: 39    Качают: 6
Скачать торрент
Скачать торрент
Описание торрента

СообщениеДобавлено: 30 июн 2017 

Логан / Logan

Перевод: Профессиональный (полное дублирование) лицензия, субтитры: русские
Формат: BDRip-AVC, MKV, H.264, AC3
Страна: США
Режиссер: Джеймс Мэнголд
Жанр: Фантастика, боевик, триллер, драма
Продолжительность: 02:17:23
Год выпуска: 2017

В ролях: Хью Джекман, Патрик Стюарт, Дафни Кин, Бойд Холбрук, Стивен Мерчант, Элизабет Родригес, Ричард Э. Грант, Эрик Ла Салль, Элиз Нил, Куинси Фаус

Описание: В недалеком будущем уставший от жизни Логан заботится о больном профессоре Икс, который прячется неподалеку от мексиканской границы. Но Логан больше не сможет скрывать своё прошлое, когда встретится с юным мутантом, которого преследуют тёмные силы...



Видео: 936x392 (2.40:1), 23.976 fps, AVC MPEG-4 (H.264), ~1137 kbps, 0.142 bit/pixel
Аудио: 48 kHz, AC3 Dolby Digital, 6 ch, ~448 kbps

Формат : Matroska
Версия формата : Version 4 / Version 2
Размер файла : 1,52 Гбайт
Продолжительность : 2 ч. 17 м.
Общий поток : 1585 Кбит/сек
Дата кодирования : UTC 2017-06-29 20:04:56
Программа кодирования : mkvmerge v12.0.0 ('Trust / Lust') 64bit
Библиотека кодирования : libebml v1.3.4 + libmatroska v1.4.5

Видео
Идентификатор : 1
Формат : AVC
Формат/Информация : Advanced Video Codec
Профиль формата :
Параметр CABAC формата : Да
Параметр ReFrames формата : 10 кадров
Идентификатор кодека : V_MPEG4/ISO/AVC
Продолжительность : 2 ч. 17 м.
Битрейт : 1137 Кбит/сек
Ширина : 936 пикселей
Высота : 392 пикселя
Соотношение сторон : 2,40:1
Режим частоты кадров : Постоянный
Частота кадров : 23,976 кадра/сек
Цветовое пространство : YUV
Субдискретизация насыщенности : 4:2:0
Битовая глубина : 8 бит
Тип развёртки : Прогрессивная
Бит/(Пиксели*Кадры) : 0.142
Размер потока : 1,09 Гбайт (72%)
Библиотека кодирования : x264 core 146 r2538 121396c
Настройки программы : cabac=1 / ref=10 / deblock=1:-3:-3 / analyse=0x3:0x133 / me=umh / subme=11 / psy=1 / psy_rd=1.00:0.06 / mixed_ref=1 / me_range=48 / chroma_me=1 / trellis=2 / 8x8dct=1 / cqm=0 / deadzone=21,11 / fast_pskip=0 / chroma_qp_offset=-3 / threads=6 / lookahead_threads=1 / sliced_threads=0 / nr=0 / decimate=0 / interlaced=0 / bluray_compat=0 / constrained_intra=0 / bframes=10 / b_pyramid=2 / b_adapt=2 / b_bias=0 / direct=3 / weightb=1 / open_gop=0 / weightp=2 / keyint=240 / keyint_min=23 / scenecut=40 / intra_refresh=0 / rc_lookahead=40 / rc=2pass / mbtree=0 / bitrate=1137 / ratetol=1.0 / qcomp=0.60 / qpmin=0 / qpmax=69 / qpstep=4 / cplxblur=20.0 / qblur=0.5 / vbv_maxrate=50000 / vbv_bufsize=62500 / nal_hrd=none / filler=0 / ip_ratio=1.40 / pb_ratio=1.30 / aq=1:1.00
Default : Да
Forced : Нет
Основные цвета : BT.709
Характеристики трансфера : BT.709
Коэффициенты матрицы : BT.709

Аудио
Идентификатор : 2
Формат : AC-3
Формат/Информация : Audio Coding 3
Расширение режима : CM (complete main)
Параметр Endianness формата : Big
Идентификатор кодека : A_AC3
Продолжительность : 2 ч. 17 м.
Вид битрейта : Постоянный
Битрейт : 448 Кбит/сек
Каналы : 6 каналов
Расположение каналов : Front: L C R, Side: L R, LFE
Частота : 48,0 КГц
Битовая глубина : 16 бит
Метод сжатия : С потерями
Размер потока : 440 Мбайт (28%)
Язык : Russian
Default : Да
Forced : Нет

Текст #1
Идентификатор : 8
Формат : UTF-8
Идентификатор кодека : S_TEXT/UTF8
Идентификатор кодека/Информация : UTF-8 Plain Text
Заголовок : Forced
Язык : Russian
Default : Да
Forced : Нет

Текст #2
Идентификатор : 9
Формат : UTF-8
Идентификатор кодека : S_TEXT/UTF8
Идентификатор кодека/Информация : UTF-8 Plain Text
Заголовок : Full
Язык : Russian
Default : Нет
Forced : Нет

Меню
00:00:00.000 : en:Chapter 1
00:05:35.126 : en:Chapter 2
00:09:18.558 : en:Chapter 3
00:11:41.158 : en:Chapter 4
00:16:23.232 : en:Chapter 5
00:20:11.668 : en:Chapter 6
00:24:26.715 : en:Chapter 7
00:26:11.903 : en:Chapter 8
00:30:13.311 : en:Chapter 9
00:31:59.125 : en:Chapter 10
00:34:56.886 : en:Chapter 11
00:39:53.432 : en:Chapter 12
00:42:55.573 : en:Chapter 13
00:45:03.826 : en:Chapter 14
00:47:53.412 : en:Chapter 15
00:49:39.559 : en:Chapter 16
00:52:14.422 : en:Chapter 17
00:54:30.517 : en:Chapter 18
00:57:44.210 : en:Chapter 19
01:00:10.398 : en:Chapter 20
01:03:53.830 : en:Chapter 21
01:06:55.511 : en:Chapter 22
01:09:54.773 : en:Chapter 23
01:13:15.891 : en:Chapter 24
01:18:43.593 : en:Chapter 25
01:21:50.906 : en:Chapter 26
01:25:52.188 : en:Chapter 27
01:28:38.813 : en:Chapter 28
01:32:41.430 : en:Chapter 29
01:35:29.724 : en:Chapter 30
01:41:03.432 : en:Chapter 31
01:43:39.880 : en:Chapter 32
01:49:38.989 : en:Chapter 33
01:54:20.562 : en:Chapter 34
01:57:00.430 : en:Chapter 35
01:59:20.403 : en:Chapter 36
02:01:14.433 : en:Chapter 37
02:05:09.627 : en:Chapter 38
02:06:40.551 : en:Chapter 39
02:11:07.860 : en:Chapter 40












   Похожие торренты   Торрент   Размер 
В этой теме нет новых непрочитанных сообщений. Логан / Logan (Джеймс Мэнголд) [2017, фантастика, боевик, триллер, драма, BDRip-AVC] DUB / Фантастика

23 | 4

2.46 ГБ

В этой теме нет новых непрочитанных сообщений. Логан / Logan (Джеймс Мэнголд) [2017, фантастика, боевик, триллер, драма, BDRip] DUB / Фантастика

506 | 17

1.46 ГБ

В этой теме нет новых непрочитанных сообщений. Логан / Logan (Джеймс Мэнголд) [2017, фантастика, боевик, триллер, драма, BDRip-AVC] DUB / Фантастика

14 | 5

2.95 ГБ

В этой теме нет новых непрочитанных сообщений. Логан / Logan (Джеймс Мэнголд) [2017, фантастика, боевик, триллер, драма, BDRip] DUB / Фантастика

13 | 6

2.18 ГБ

В этой теме нет новых непрочитанных сообщений. Логан / Logan (Джеймс Мэнголд ) [2017, фантастика, боевик, триллер, драма, HDRip-AVC] DUB / Фантастика

10 | 4

2.19 ГБ

В этой теме нет новых непрочитанных сообщений. Ловкость / Sleight (Джастин Диллард) [2017, фантастика, боевик, триллер, драма, HDRip] MVO / Фантастика

10 | 6

1.36 ГБ

В этой теме нет новых непрочитанных сообщений. Люди Икс: Коллекция / X-Men: Collection (Брайан Сингер, Бретт Рэтнер, Гэвин Худ, Мэттью Вон, Джеймс Мэнголд) [(2000-2017), фантастика, боевик, приключения, BDRip-AVC] DUB

28 | 1

24.02 ГБ




Вы не можете начинать темы
Вы не можете отвечать на сообщения
Вы не можете редактировать свои сообщения
Вы не можете удалять свои сообщения
Вы не можете добавлять вложения

Перейти:  
 Вход
ppkBB3cker v.2 © 2008-2014 @ PPK
[ Time : 0.024s | 16 Queries | GZIP : Off ]

cron