img image001 image001 image001 image001 image001 image001 image001 image001 image001 image001 image001 image001 image001 image001 image001

Planets Sun Sun Sun
Статистика раздачи
Автор: Nickolas3434 | Размер: 5.08 ГБ | Добавлен: 04 июл 2017
Раздают: 18    Качают: 1
Скачать торрент
Скачать торрент
Описание торрента

СообщениеДобавлено: 04 июл 2017 

Информация о фильме
Название: SEX DOLL
Оригинальное название: Sex Doll
Год выхода: 2016
Жанр: Триллер
Режиссер: Сильви Веред
В ролях: Хафсия Херци, Эш Стаймест, Кароль Роше, Поль Ами, Джереми Беннетт, Саймон Киллик, Уэйн Сванн
О фильме:
Место действия современной сказки о любви - темная сторона Лондона, своеобразный мир высококлассных девушек легкого поведения. Вирджиния - молодая, невероятно красивая и независимая француженка. Трудится она много и самоотверженно: проводит дни и ночи с состоятельными мужчинами за большие деньги.Вирджиния сумела заслужить уважение в своей совершенно аморальной среде. Карьера шла в гору, пока она не встретила его. Руперт - юный и дерзкий. Он по-настоящему влюбляется, закрыв глаза на сомнительную репутацию новой подруги. Его цель - спасти Вирджинию от унижения, опасности и презрения, ставших для нее нормой.

Страна: Великобритания, Франция
Студия: Canal+ [fr], Centre National de la Cinématographie (CNC), Cofinova 12, Les Films du Veyrier
Продолжительность: 01:42:49
Перевод: Профессиональный многоголосый | iTunes
Файл
Качество: BDRip 720p
Видео: MPEG-4 AVC, 1280x534, 6047 Kbit/s, 23.976 fps
Звук:
Аудио #01: 48 kHz, AC3, 5.1, 384 Kbps | iTunes | RUS |
Аудио #02: 48 kHz, AC3, 5.1, 640 Kbps | Оригинал | FRE |

General
Unique ID : 218513737067499580599225809668854639843 (0xA4643706D2198846A10444896369ECE3)
Complete name : F:VideoSex.Doll.2016.BDRip.720p.ExKinoRay.mkv
Format : Matroska
Format version : Version 4 / Version 2
File size : 5.08 GiB
Duration : 1 h 42 min
Overall bit rate : 7 066 kb/s
Encoded date : UTC 2017-07-03 04:22:23
Writing application : mkvmerge v13.0.0 ('The Juggler') 64bit
Writing library : libebml v1.3.4 + libmatroska v1.4.5
Video
ID : 1
Format : AVC
Format/Info : Advanced Video Codec
Format profile : High@L4.1
Format settings, CABAC : Yes
Format settings, ReFrames : 12 frames
Codec ID : V_MPEG4/ISO/AVC
Duration : 1 h 42 min
Bit rate : 6 047 kb/s
Width : 1 280 pixels
Height : 534 pixels
Display aspect ratio : 2.40:1
Frame rate mode : Constant
Frame rate : 23.976 (24000/1001) FPS
Color space : YUV
Chroma subsampling : 4:2:0
Bit depth : 8 bits
Scan type : Progressive
Bits/(Pixel*Frame) : 0.369
Stream size : 4.34 GiB (85%)
Writing library : x264 core 146 r2538 121396c
Encoding settings : cabac=1 / ref=12 / deblock=1:-2:-2 / analyse=0x3:0x133 / me=umh / subme=10 / psy=1 / psy_rd=1.00:0.00 / mixed_ref=1 / me_range=32 / chroma_me=1 / trellis=2 / 8x8dct=1 / cqm=0 / deadzone=21,11 / fast_pskip=0 / chroma_qp_offset=-2 / threads=12 / lookahead_threads=1 / sliced_threads=0 / nr=0 / decimate=0 / interlaced=0 / bluray_compat=0 / constrained_intra=0 / bframes=6 / b_pyramid=2 / b_adapt=2 / b_bias=0 / direct=3 / weightb=1 / open_gop=0 / weightp=2 / keyint=230 / keyint_min=22 / scenecut=40 / intra_refresh=0 / rc_lookahead=60 / rc=2pass / mbtree=1 / bitrate=6047 / ratetol=1.0 / qcomp=0.60 / qpmin=0 / qpmax=69 / qpstep=4 / cplxblur=20.0 / qblur=0.5 / vbv_maxrate=50000 / vbv_bufsize=50000 / nal_hrd=none / filler=0 / ip_ratio=1.40 / aq=1:1.00
Language : French
Default : Yes
Forced : No
Audio #1
ID : 2
Format : AC-3
Format/Info : Audio Coding 3
Format settings, Endianness : Big
Codec ID : A_AC3
Duration : 1 h 42 min
Bit rate mode : Constant
Bit rate : 384 kb/s
Channel(s) : 6 channels
Channel positions : Front: L C R, Side: L R, LFE
Sampling rate : 48.0 kHz
Frame rate : 31.250 FPS (1536 spf)
Bit depth : 16 bits
Compression mode : Lossy
Stream size : 282 MiB (5%)
Title : iTunes
Language : Russian
Service kind : Complete Main
Default : Yes
Forced : No
Audio #2
ID : 3
Format : AC-3
Format/Info : Audio Coding 3
Format settings, Endianness : Big
Codec ID : A_AC3
Duration : 1 h 42 min
Bit rate mode : Constant
Bit rate : 640 kb/s
Channel(s) : 6 channels
Channel positions : Front: L C R, Side: L R, LFE
Sampling rate : 48.0 kHz
Frame rate : 31.250 FPS (1536 spf)
Bit depth : 16 bits
Compression mode : Lossy
Stream size : 471 MiB (9%)
Title : Original
Language : French
Service kind : Complete Main
Default : No
Forced : No
Menu
00:00:00.000 : en:00:00:00.000
00:18:30.833 : en:00:18:30.833
00:31:41.875 : en:00:31:41.875
00:46:30.333 : en:00:46:30.333
01:03:02.500 : en:01:03:02.500
01:18:44.792 : en:01:18:44.792

Релиз от: Автор релиза:
Подпишись на меня, кликни по картинке > :



   Похожие торренты   Торрент   Размер 
В этой теме нет новых непрочитанных сообщений. SEX DOLL / Sex Doll (2016) BDRip 1080p от ExKinoRay | iTunes

21 | 2

9.42 ГБ

В этой теме нет новых непрочитанных сообщений. Sex Doll / Sex Doll (2016) BDRip от ExKinoRay | iTunes

30 | 1

1.41 ГБ

В этой теме нет новых непрочитанных сообщений. Sex Doll / Sex Doll (2016) BDRemux 1080p от ExKinoRay | iTunes

8 | 1

19.77 ГБ

В этой теме нет новых непрочитанных сообщений. SEX DOLL / Sex Doll (2016) BDRip от MegaPeer | iTunes

47 | 0

1.41 ГБ

В этой теме нет новых непрочитанных сообщений. SEX DOLL / Sex Doll (2016) BDRip-AVC от OlLanDGroup | iTunes

38 | 7

2.39 ГБ

В этой теме нет новых непрочитанных сообщений. SEX DOLL / Sex Doll (2016) WEB-DL 720p | iTunes

139 | 19

3.26 ГБ

В этой теме нет новых непрочитанных сообщений. SEX DOLL / Sex Doll (2016) WEB-DLRip-AVC от OlLanDGroup | iTunes

20 | 0

2.2 ГБ




Вы не можете начинать темы
Вы не можете отвечать на сообщения
Вы не можете редактировать свои сообщения
Вы не можете удалять свои сообщения
Вы не можете добавлять вложения

Перейти:  
Для Мосгорсуда, Роскомнадзора и рекламодателей: mosgorsud-torrent[собачка]yandex.ru
 Вход
ppkBB3cker v.2 © 2008-2014 @ PPK
[ Time : 1.735s | 17 Queries | GZIP : Off ]

cron