img image001 image001 image001 image001 image001 image001 image001 image001 image001 image001 image001 image001 image001 image001 image001

Planets Sun Sun Sun

COVID-19 - Последняя информация о коронавирусе на сайте Минздрава


Статистика раздачи
Автор: Nickolas3434 | Размер: 744.36 МБ | Добавлен: 07 июл 2017
Раздают: 46    Качают: 6
Скачать торрент
Скачать торрент
Описание торрента

СообщениеДобавлено: 07 июл 2017 

Информация о фильме
Название: Дрожь земли
Оригинальное название: Tremors
Год выхода: 1989
Жанр: ужасы, комедия
Режиссер: Рон Андервуд
В ролях: Кевин Бейкон, Фред Уорд, Финн Картер, Майкл Гросс, Риба МакИнтайр, Роберт Джейн, Шарлотта Стюарт, Тони Дженаро, Ариана Ричардс, Ричард Маркус
О фильме:
Сезонные разнорабочие Вэл Макки и Эрл Бассетт решают покинуть крошечный город Перфекшн, что в штате Невада, но зловещие подземные толчки мешают их отъезду.
С помощью студентки-сейсмолога они выясняют, что городок наводнен гигантскими плотоядными червями, обитающими под землей. Теперь кучке храбрецов предстоит вступить в битву с исполинскими тварями, которые решили полакомиться людьми.

Страна: США
Студия: Universal Pictures, No Frills Film Production, Wilson-Maddock Production
Продолжительность: 01:35:37
Перевод: Профессиональный (двухголосый закадровый) [ОРТ / СТС]
Файл
Кодек: AVC
Качество: HDRip-AVC
Видео: 768x416, 1015 kbps, 23,976 fps, 0,133 Bits/(Pixel*Frame)
Звук: AAC, 48 kHz, 2 ch, 72 kbps
Субтитры: Нет
Общее
Unique ID : 201824009865569182234472670778097991120 (0x97D5E3F1E2DDD119B057E167C864FDD0)
Complete name : F:Tremors.1989.HDRip-AVC_by_Bathory.mkv
Format : Matroska
Format version : Version 2
File size : 744 Мбайт
Duration : 1 ч. 35 м.
Overall bit rate : 1088 Кбит/сек
Encoded date : UTC 2017-07-07 01:10:45
Writing application : mkvmerge v13.0.0 ('The Juggler') 64bit
Writing library : libebml v1.3.4 + libmatroska v1.4.5
Видео
ID : 1
Format : AVC
Format/Info : Advanced Video Codec
Format profile : High@L4.1
Format settings, CABAC : Да
Format settings, ReFrames : 14 кадров
Codec ID : V_MPEG4/ISO/AVC
Duration : 1 ч. 35 м.
Bit rate : 1015 Кбит/сек
Width : 768 пикселей
Height : 416 пикселей
Display aspect ratio : 1,85:1
Frame rate mode : Постоянный
Frame rate : 23,976 (24000/1001) кадра/сек
Color space : YUV
Chroma subsampling : 4:2:0
Bit depth : 8 бит
Scan type : Прогрессивная
Bits/(Pixel*Frame) : 0.133
Stream size : 694 Мбайт (93%)
Writing library : x264 core 152 r2851 ba24899
Encoding settings : cabac=1 / ref=14 / deblock=1:-2:-2 / analyse=0x3:0x133 / me=umh / subme=11 / psy=1 / psy_rd=1.00:0.15 / mixed_ref=1 / me_range=32 / chroma_me=1 / trellis=2 / 8x8dct=1 / cqm=0 / deadzone=21,11 / fast_pskip=0 / chroma_qp_offset=-3 / threads=12 / lookahead_threads=3 / sliced_threads=0 / nr=0 / decimate=0 / interlaced=0 / bluray_compat=0 / constrained_intra=0 / bframes=16 / b_pyramid=2 / b_adapt=2 / b_bias=0 / direct=3 / weightb=1 / open_gop=0 / weightp=2 / keyint=230 / keyint_min=23 / scenecut=0 / intra_refresh=0 / rc_lookahead=60 / rc=2pass / mbtree=1 / bitrate=1015 / ratetol=1.0 / qcomp=0.60 / qpmin=0 / qpmax=51 / qpstep=4 / cplxblur=15.0 / qblur=0.5 / vbv_maxrate=50000 / vbv_bufsize=62500 / nal_hrd=none / filler=0 / ip_ratio=1.40 / aq=2:1.00
Default : Да
Forced : Нет
Аудио
ID : 2
Format : AAC
Format/Info : Advanced Audio Codec
Format profile : HE-AAC / LC
Codec ID : A_AAC
Duration : 1 ч. 35 м.
Bit rate : 72,0 Кбит/сек
Channel(s) : 2 канала
Channel positions : Front: L R
Sampling rate : 48,0 КГц / 24,0 КГц
Frame rate : 23,438 кадра/сек (1024 spf)
Compression mode : С потерями
Delay relative to video : 31 мс.
Stream size : 49,2 Мбайт (7%)
Language : Russian
Default : Да
Forced : Нет


Релиз от:
Автор рипа: _Bathory_

   Похожие торренты   Торрент   Размер 
В этой теме нет новых непрочитанных сообщений. Дрожь земли 2: Повторный удар / Tremors II: Aftershocks (1996) HDRip-AVC от ImperiaFilm | P

12 | 2

745.02 МБ

В этой теме нет новых непрочитанных сообщений. Дрожь земли / Tremors (1989) BDRip 720p | P2, P, A

26 | 6

6.09 ГБ

В этой теме нет новых непрочитанных сообщений. Дрожь земли 3 / Tremors 3: Back to Perfection (2001) HDRip-AVC | P

20 | 2

744.88 МБ

В этой теме нет новых непрочитанных сообщений. Дрожь земли 5: Кровное родство / Tremors 5: Bloodlines (2015) HDRip-AVC | L

426 | 27

1.45 ГБ

В этой теме нет новых непрочитанных сообщений. Дрожь земли 5: Кровное родство / Tremors 5: Bloodlines (2015) HDRip | L

8622 | 629

1.37 ГБ

В этой теме нет новых непрочитанных сообщений. Дрожь земли 5: Кровное родство / Tremors 5: Bloodlines (2015) HDRip | КПК | L

102 | 11

455.03 МБ

В этой теме нет новых непрочитанных сообщений. Дрожь земли 5: Кровное родство / Tremors 5: Bloodlines (2015) HDRip от torrentfilm | L

654 | 58

751.04 МБ




Вы не можете начинать темы
Вы не можете отвечать на сообщения
Вы не можете редактировать свои сообщения
Вы не можете удалять свои сообщения
Вы не можете добавлять вложения

Перейти:  
Контактная информация: rstracker[пёсик]yandex.ru
 Вход
ppkBB3cker v.2 © 2008-2014 @ PPK
[ Time : 0.023s | 16 Queries | GZIP : Off ]

cron